<?xml version="1.0" standalone="no"?>
<!DOCTYPE svg PUBLIC "-//W3C//DTD SVG 1.1//EN" "http://www.w3.org/Graphics/SVG/1.1/DTD/svg11.dtd" >
<svg xmlns="http://www.w3.org/2000/svg">
<metadata></metadata>
<defs>
<font id="alegreyabold" horiz-adv-x="1280" >
<font-face units-per-em="2048" ascent="1638" descent="-410" />
<missing-glyph horiz-adv-x="356" />
<glyph horiz-adv-x="2048" />
<glyph horiz-adv-x="2048" />
<glyph unicode="&#xd;" horiz-adv-x="2048" />
<glyph unicode=" "  horiz-adv-x="356" />
<glyph unicode="&#x09;" horiz-adv-x="356" />
<glyph unicode="&#xa0;" horiz-adv-x="356" />
<glyph unicode="!" horiz-adv-x="583" d="M102 133q0 74 45 121t121 47q72 0 112 -42t40 -112q0 -76 -45 -123t-121 -47q-73 0 -112.5 42.5t-39.5 113.5zM147 1364l25 35l274 45l33 -37l-127 -928l-131 -22l-31 26z" />
<glyph unicode="&#x22;" horiz-adv-x="657" d="M88 1311l205 28l16 -20q-31 -225 -78 -442l-98 -41l-31 8q3 105 -0.5 221.5t-8.5 180.5zM385 1311l205 28l16 -20q-31 -225 -78 -442l-98 -41l-31 8q3 105 -0.5 221.5t-8.5 180.5z" />
<glyph unicode="#" horiz-adv-x="1077" d="M18 387l31 141l207 -2l20 107l19 86h-195l-12 22l31 144l203 -2l55 284l149 15l23 -13l-64 -286h97l96 -2l55 286l150 15l22 -13l-63 -286l198 4l11 -25l-29 -143h-213l-10 -57l-27 -134l199 2l10 -24l-29 -141h-209l-53 -275l-145 -22l-21 16l58 281l-115 2l-78 -2 l-53 -275l-146 -22l-20 16l57 281l-196 -3zM416 526h90l106 -2l21 109l16 88h-194l-13 -59z" />
<glyph unicode="$" horiz-adv-x="954" d="M70 68q26 145 30 268l158 12q0 -116 39 -159.5t137 -43.5q73 0 116.5 29t43.5 76q0 13 -4 25.5t-13 24t-18.5 21t-26.5 19.5t-29.5 17.5t-35.5 18t-37.5 17t-40.5 18t-41 17.5q-47 21 -79.5 38.5t-70.5 45t-61.5 55.5t-39 67.5t-15.5 84.5q0 125 100 211t267 108l32 291 l142 19l12 -19l-31 -287q64 -3 125 -13t90 -19l29 -9l14 -24q-31 -132 -43 -275l-143 -12l-17 12q3 23 3 46q0 65 -37 94.5t-117 29.5q-66 0 -108 -28t-42 -72q0 -18 7 -34.5t26.5 -32.5t33 -26.5t48.5 -27t49 -22.5t58 -25q52 -22 85.5 -38t78 -44.5t70.5 -57t44.5 -70 t18.5 -89.5q0 -130 -105 -215t-285 -102l-32 -297l-140 -17l-12 15l33 295q-68 4 -130.5 19t-91.5 27l-28 13z" />
<glyph unicode="%" horiz-adv-x="1460" d="M37 971q0 166 88 267t235 101q141 0 215 -91t74 -240q0 -167 -85.5 -271t-235.5 -104q-137 0 -214 91t-77 247zM156 -106q248 369 424 647l536 848l127 -52l14 -39q-360 -547 -544 -833l-414 -655l-133 55zM166 995q0 -80 52 -119.5t134 -39.5q168 0 168 135 q0 72 -49 114.5t-141 42.5q-81 0 -122.5 -34.5t-41.5 -98.5zM836 315q0 165 88 266t235 101q140 0 214.5 -92t74.5 -240q0 -166 -86.5 -270.5t-235.5 -104.5q-138 0 -214 91.5t-76 248.5zM963 338q0 -80 52 -119t136 -39q166 0 166 133q0 72 -50 116t-141 44 q-79 0 -121 -35.5t-42 -99.5z" />
<glyph unicode="&#x26;" horiz-adv-x="1474" d="M84 334q0 49 14 93.5t36.5 76.5t49.5 60t54 46.5t49.5 31.5t36.5 18l14 6v18q-87 90 -124.5 161.5t-37.5 145.5q0 155 127 251.5t330 96.5q76 0 148 -11.5t105 -23.5l34 -12l4 -35l-99 -186l-37 -2q-58 52 -107 73t-108 21q-72 0 -113.5 -36t-41.5 -99q0 -85 57.5 -165 t212.5 -212l301 -258q27 79 27 154q0 98 -36.5 144t-113.5 46q-24 0 -51 -3.5t-42 -7.5l-15 -3l-41 137q53 31 141 35l420 25q164 14 168 22l29 -47l-37 -102q-13 -34 -43 -46t-99 -12h-170l-6 -14q62 -68 62 -168q0 -120 -86 -250l280 -237v-33q-15 -12 -38.5 -29 t-75 -45.5t-78.5 -28.5q-28 0 -250 201q-91 -74 -193.5 -115t-195.5 -41q-215 0 -338 96t-123 263zM319 385q0 -104 80 -168.5t209 -64.5q130 0 230 65l-404 371q-53 -34 -84 -88.5t-31 -114.5z" />
<glyph unicode="'" horiz-adv-x="360" d="M88 1311l205 28l16 -20q-31 -225 -78 -442l-98 -41l-31 8q3 105 -0.5 221.5t-8.5 180.5z" />
<glyph unicode="(" horiz-adv-x="632" d="M143 334v354q0 81 12.5 154t33.5 129.5t48.5 106t58 85t60.5 64.5t57.5 47.5t48.5 31t34 18.5l12 5h22l64 -94l-2 -12q-9 -5 -24 -14.5t-53.5 -50t-68 -92t-53.5 -144.5t-24 -203v-354q0 -87 13 -165.5t33.5 -133.5t45 -101.5t49.5 -75.5t45.5 -49t33.5 -28l13 -9v-16 l-84 -86h-16q-8 3 -20.5 9t-50 30t-71.5 54t-75.5 83t-71 114.5t-50 151.5t-20.5 191z" />
<glyph unicode=")" horiz-adv-x="632" d="M31 1227v16l84 86h16q7 -3 20 -9t50.5 -30t71 -54t75 -83t71 -114.5t50 -151.5t20.5 -191v-354q0 -102 -20 -193t-52 -154t-71 -115.5t-78 -84.5t-71 -54t-52 -31l-20 -9h-23l-63 94l2 12q9 5 24 14.5t53.5 50t68 92t53.5 144.5t24 203v355q0 87 -13 165.5t-33.5 133.5 t-45 101t-49.5 75t-45.5 49t-33.5 28z" />
<glyph unicode="*" horiz-adv-x="843" d="M84 1208q0 92 25 164l18 6q102 -53 211 -135l-16 -84l-15 -12q-48 16 -104 31t-87 22zM127 940v21q82 79 195 157l73 -41l6 -16q-29 -41 -60.5 -89.5t-48.5 -77.5l-16 -28q-88 29 -149 74zM348 1495q90 29 164 29l14 -17q-22 -112 -65 -241l-86 -11l-15 9q-1 51 -4 109 t-6 90zM434 1065l62 59h20q29 -40 65 -85t57 -70l21 -25q-53 -76 -114 -119l-21 6q-51 103 -90 234zM483 1231l6 20q47 16 101 36.5t84 32.5l31 13q54 -75 77 -147l-12 -17q-13 -2 -36 -4.5t-88.5 -6.5t-125.5 -3z" />
<glyph unicode="+" horiz-adv-x="1036" d="M35 444l28 185q185 -2 351 -2l2 368l182 23l27 -14q-11 -217 -13 -377l375 12l14 -25l-20 -188l-369 -2l2 -344l-180 -31l-22 17q0 190 2 358l-365 -2z" />
<glyph unicode="," horiz-adv-x="487" d="M8 -190q66 45 107 108.5t41 124.5q0 82 -64 150l6 28q93 70 162 70q61 0 99 -48.5t38 -133.5q0 -107 -89.5 -213.5t-223.5 -182.5l-76 62v35z" />
<glyph unicode="-" horiz-adv-x="663" d="M72 422l14 160l336 39l151 20l19 -27l-17 -163l-485 -54z" />
<glyph unicode="." horiz-adv-x="487" d="M84 133q0 74 45 121t121 47q72 0 112.5 -42t40.5 -112q0 -76 -44.5 -123t-120.5 -47q-75 0 -114.5 42.5t-39.5 113.5z" />
<glyph unicode="/" horiz-adv-x="673" d="M41 -203q104 356 184 666l236 919h166l26 -30q-162 -581 -250 -912l-170 -665h-174z" />
<glyph unicode="0" horiz-adv-x="1026" d="M53 485q0 252 134.5 405.5t353.5 153.5q200 0 316 -135.5t116 -369.5q0 -254 -133 -409t-351 -155q-202 0 -319 137t-117 373zM219 514q0 -123 82 -196.5t221 -73.5q134 0 209.5 66t75.5 182q0 126 -82.5 200t-224.5 74q-132 0 -206.5 -67t-74.5 -185z" />
<glyph unicode="1" horiz-adv-x="747" d="M43 856l12 117q91 8 248 31q87 12 157 22t95.5 14t26.5 4l20 -61q-36 -30 -53.5 -64.5t-24.5 -95.5q-20 -231 -20 -553q0 -76 19.5 -106.5t70.5 -30.5l100 6l4 -10l-22 -137q-191 8 -293 8q-57 0 -137.5 -6.5t-131.5 -12t-51 -4.5l17 129q105 9 143.5 48.5t38.5 140.5 v440q0 71 -23 94t-81 23q-17 0 -43 -2.5t-43 -5.5l-17 -2z" />
<glyph unicode="2" horiz-adv-x="991" d="M31 49l153 170q165 189 234 300t69 183q0 60 -33 92.5t-94 32.5q-60 0 -122 -42t-107 -115h-29l-34 151q79 104 184.5 163.5t214.5 59.5q143 0 231 -73t88 -191q0 -96 -78 -211.5t-305 -361.5l9 -17h196q96 0 136.5 38.5t60.5 148.5l156 14q-44 -219 -58 -385l-29 -24 q-503 18 -696 18l-131 -18z" />
<glyph unicode="3" horiz-adv-x="882" d="M23 4l28 29q79 -27 174 -27q129 0 214 55t85 140t-73 124.5t-230 39.5l-18 20l-15 127l134 29q69 31 111 84.5t42 111.5q0 49 -35.5 80t-89.5 31q-107 0 -225 -100q-4 0 -12.5 -1.5t-12.5 -1.5l-43 146q60 47 174.5 100t206.5 53q137 0 220 -65.5t83 -173.5 q0 -85 -61 -160.5t-164 -118.5v-16q139 -37 212 -106t73 -164q0 -105 -90.5 -209t-234 -170t-288.5 -66q-85 0 -121 47t-44 162z" />
<glyph unicode="4" horiz-adv-x="958" d="M4 150l6 137l543 753q2 0 6.5 2t5.5 2l172 -22v-700h168l17 -23l-19 -170q-66 2 -164 6q1 -67 4 -141t6 -115l3 -41l-17 -18l-235 -25l-17 21q9 178 13 325q-365 9 -492 9zM219 322h277v364h-21z" />
<glyph unicode="5" horiz-adv-x="874" d="M2 4l27 29q83 -27 176 -27q133 0 221 55t88 142q0 80 -86.5 126.5t-300.5 76.5l-18 22q12 119 22.5 257.5t14.5 216.5l4 79l16 16l395 15q59 3 85.5 19.5t43.5 62.5l113 8l-53 -301l-27 -27q-187 17 -408 17l-16 -183q245 -48 365 -127t120 -215q0 -118 -93.5 -228.5 t-237 -176.5t-287.5 -66q-81 0 -119 46t-45 163z" />
<glyph unicode="6" horiz-adv-x="950" d="M57 418q0 99 24.5 190t65.5 161t94.5 132.5t112.5 107.5t117.5 82.5t112 61.5t94.5 41t66 24l24 7l20 -11l41 -112q-14 -5 -37 -15t-87.5 -47t-120.5 -81.5t-118 -120.5t-97 -162l10 -12q5 2 39.5 19.5t73.5 34.5t61 21q160 0 253 -101t93 -247q0 -183 -122 -299.5 t-322 -116.5q-181 0 -289.5 123t-108.5 320zM307 416q0 -129 48.5 -202t136.5 -73q78 0 120.5 51.5t42.5 147.5t-49 157.5t-131 61.5q-81 0 -164 -57q-4 -58 -4 -86z" />
<glyph unicode="7" horiz-adv-x="874" d="M51 598q29 234 39 420l12 10q123 -8 250 -8h445l80 -98q-232 -480 -402 -895l-63 -232h-35l-187 55l-22 52l459 905l-275 -16q-96 -7 -127.5 -40.5t-50.5 -140.5z" />
<glyph unicode="8" horiz-adv-x="980" d="M78 266q0 61 22 113t59 88.5t72.5 60t75.5 41.5q-94 59 -148.5 132t-54.5 178q0 142 118 244t294 102q145 0 249.5 -79.5t104.5 -207.5q0 -68 -30.5 -126t-68.5 -91.5t-85 -58.5q99 -58 156 -129t57 -177q0 -162 -126 -271.5t-314 -109.5q-162 0 -271.5 80t-109.5 211z M301 319q0 -79 55 -135.5t138 -56.5q73 0 121.5 45t48.5 115q0 35 -17 64.5t-51.5 55t-68.5 44t-86 44.5q-15 7 -23 11q-117 -72 -117 -187zM344 928q0 -28 13 -54t29 -43.5t50.5 -39.5t57.5 -34t69 -34q80 67 80 168q0 81 -43.5 126.5t-112.5 45.5q-64 0 -103.5 -39 t-39.5 -96z" />
<glyph unicode="9" horiz-adv-x="950" d="M49 629q0 183 123 299t322 116q181 0 290 -122.5t109 -319.5q0 -99 -24.5 -190t-65.5 -161.5t-94.5 -133t-112.5 -107.5t-117.5 -83t-112 -62t-94.5 -41t-66 -24l-24 -7l-20 12l-41 113q14 5 37 14.5t87.5 46.5t120 81t117.5 120t97 162l-9 14q-5 -2 -40 -20t-74 -35 t-62 -20q-160 0 -253 100.5t-93 247.5zM295 680q0 -98 48 -158.5t130 -60.5q75 0 164 55q6 44 6 88q0 128 -49 201.5t-135 73.5q-78 0 -121 -51.5t-43 -147.5z" />
<glyph unicode=":" horiz-adv-x="487" d="M80 133q0 74 45 121t121 47q72 0 112.5 -42t40.5 -112q0 -76 -45 -123t-121 -47q-74 0 -113.5 42.5t-39.5 113.5zM80 692q0 74 45 121t121 47q72 0 112.5 -41.5t40.5 -111.5q0 -76 -45 -123t-121 -47q-75 0 -114 42t-39 113z" />
<glyph unicode=";" horiz-adv-x="487" d="M8 -190q66 45 107 108.5t41 124.5q0 82 -64 150l6 28q93 70 162 70q61 0 99 -48.5t38 -133.5q0 -107 -89.5 -213.5t-223.5 -182.5l-76 62v35zM80 692q0 74 45 121t121 47q72 0 112.5 -41.5t40.5 -111.5q0 -76 -45 -123t-121 -47q-75 0 -114 42t-39 113z" />
<glyph unicode="&#x3c;" horiz-adv-x="962" d="M57 463l2 199l392 167l362 156l27 -16l41 -156q-209 -77 -369 -145l-252 -103v-14l279 -123l335 -147l9 -31l-86 -133q-178 79 -336 151l-387 168z" />
<glyph unicode="=" horiz-adv-x="1036" d="M35 264l28 185q298 -3 480 -3q73 0 184 3t185 7l75 3l14 -25l-20 -188l-465 -2l-467 -2zM35 629l28 184q298 -2 480 -2q73 0 184 3t185 6l75 3l14 -24l-20 -189l-465 -2l-467 -2z" />
<glyph unicode="&#x3e;" horiz-adv-x="962" d="M80 852l86 133q178 -82 336 -154l387 -165l16 -27l-2 -201l-391 -168l-362 -153l-27 14l-41 158q209 75 369 143l251 103v14l-278 123l-336 147z" />
<glyph unicode="?" horiz-adv-x="757" d="M100 1257l76 173l31 14q225 -6 377.5 -108t152.5 -249q0 -84 -43 -152.5t-89.5 -105.5t-169.5 -120l-12 -9t-11 -7.5t-13 -8.5l-6 -14l31 -170l-12 -23l-181 -37l-24 13l-49 258l6 28l221 129q107 66 107 148q0 96 -98.5 150t-276.5 63zM158 133q0 74 46 121t122 47 q71 0 111 -42t40 -112q0 -76 -45 -123t-121 -47q-73 0 -113 42.5t-40 113.5z" />
<glyph unicode="@" horiz-adv-x="1767" d="M49 367q0 184 72.5 357t195.5 303.5t298.5 209t369.5 78.5q219 0 386 -82t257 -229t90 -336q0 -146 -48 -272.5t-136.5 -220t-223.5 -147t-300 -53.5q-42 0 -66 22.5t-24 61.5q0 23 25 144t44 192l-16 2q-169 -308 -330 -422q-112 0 -173.5 80t-61.5 219q0 163 74 322.5 t189.5 258.5t229.5 99l178 -36l15 45l24 14l164 -29l16 -35q-108 -418 -157 -741l12 -12q181 0 284 122t103 320q0 258 -164.5 403.5t-447.5 145.5q-202 0 -362.5 -98.5t-247.5 -265t-87 -367.5q0 -163 48.5 -296t144 -231.5t244.5 -155t342 -61.5q0 -5 -1 -16t-1 -16 l-64 -103q-210 4 -380 67.5t-282.5 173t-172.5 259t-60 326.5zM664 387q0 -72 12.5 -122t32.5 -50q44 0 137.5 154t173.5 364q-105 60 -180 60q-42 0 -83 -58t-67 -153t-26 -195z" />
<glyph unicode="A" d="M-25 -6l17 137q48 8 78.5 38t54.5 97l364 1039l326 32l23 -10q183 -712 292 -1057q22 -73 57 -104t103 -37l8 -14l-14 -121q-162 6 -252 6q-78 0 -164.5 -4t-133.5 -8l-48 -4l-12 16l10 123q99 9 128.5 23.5t29.5 52.5q0 14 -11 67l-40 156q-53 2 -187 2q-80 0 -194 -14 l-52 -154q-12 -43 -12 -63q0 -35 20.5 -48.5t73.5 -13.5h88l9 -14l-15 -129q-168 12 -299 12zM459 586h143q66 0 152 8l-119 450h-29z" />
<glyph unicode="B" horiz-adv-x="1288" d="M74 -20l16 139q88 15 119 48.5t31 113.5l2 798q0 57 -15 80t-53 23l-70 -4l-12 16l19 125q212 -4 284 -4l314 10q212 0 323 -81t111 -236q0 -199 -219 -314q132 -35 210 -111t78 -194q0 -186 -145.5 -297.5t-388.5 -111.5q-33 1 -146.5 10.5t-156.5 9.5q-52 0 -127.5 -5 t-124.5 -10zM506 276q0 -65 44 -92.5t148 -27.5q100 0 155.5 53.5t55.5 150.5q0 82 -53 137t-154 78l-188 -2zM518 756q156 -19 195 -19q6 2 15.5 6.5t33.5 22t43 39.5t34 62t15 87q0 103 -69 152t-214 49q-20 0 -27 -7.5t-9 -29.5q-13 -183 -17 -362z" />
<glyph unicode="C" horiz-adv-x="1263" d="M57 623q0 327 194.5 521.5t522.5 194.5q76 0 174 -12.5t158 -25.5l59 -13l13 -26q-42 -171 -54 -388l-202 -14q4 56 4 109q0 89 -54 130.5t-170 41.5q-159 0 -242 -113t-83 -336q0 -249 90 -386.5t250 -137.5q111 0 172 67t86 216l203 14q-35 -213 -41 -383l-21 -25 q-8 -3 -22.5 -8.5t-62 -20t-97.5 -25t-123.5 -19.5t-144.5 -9q-283 0 -446 173.5t-163 474.5z" />
<glyph unicode="D" horiz-adv-x="1419" d="M78 -20l14 139q88 17 118 52.5t30 121.5l2 776q0 66 -13.5 88.5t-52.5 22.5l-67 -4l-13 18l17 127q182 -6 262 -6l325 10q311 0 486.5 -162.5t175.5 -451.5q0 -213 -90 -381t-252.5 -261.5t-368.5 -93.5q-192 25 -309 25q-48 0 -114 -5t-108 -10zM506 299q0 -87 34 -116 t136 -29q179 0 271.5 124t92.5 369q0 259 -109.5 379.5t-338.5 120.5q-34 0 -46.5 -10t-13.5 -39q-26 -559 -26 -799z" />
<glyph unicode="E" horiz-adv-x="1222" d="M74 -20l16 139q85 12 116.5 49.5t31.5 126.5l2 776q0 66 -13.5 88.5t-54.5 22.5l-61 -4l-15 18l17 125q225 -6 379 -6q435 0 622 24l16 -22q-37 -183 -47 -373l-188 -12q4 53 4 82q0 30 -3 49t-13.5 34.5t-26 23.5t-47 13.5t-69.5 7t-99 1.5q-72 0 -89.5 -11t-19.5 -57 l-14 -317q20 0 90 -1t101 -1q30 0 89.5 4t103.5 8l44 4l17 -18l-29 -176q-164 6 -266 6q-42 0 -156 -13q-6 -225 -6 -286q0 -82 21.5 -102.5t109.5 -20.5q68 0 110.5 2.5t78.5 12.5t55.5 24t35 42.5t23.5 62.5t16 89l174 15l15 -21q-38 -184 -58 -381l-18 -22 q-385 14 -639 14q-81 0 -170 -5t-138 -10z" />
<glyph unicode="F" horiz-adv-x="1089" d="M74 -23l16 140q86 15 117 52t31 126l2 776q0 66 -13.5 88.5t-54.5 22.5l-61 -4l-15 18l17 125q225 -6 379 -6q396 0 575 24l14 -22q-31 -187 -41 -375l-186 -12q4 57 4 84q0 44 -7 67.5t-32 38.5t-64.5 19t-113.5 4q-72 0 -89.5 -11t-19.5 -57l-14 -352l191 -2q27 0 81 4 t94 8l40 4l16 -18l-29 -176q-151 6 -243 6q-74 0 -156 -14l-6 -244q0 -78 18 -104.5t70 -26.5q23 0 56 2.5t55 5.5l22 2l18 -20l-22 -158q-216 8 -320 8q-68 0 -150.5 -6t-130.5 -12z" />
<glyph unicode="G" horiz-adv-x="1339" d="M57 623q0 334 194 525t535 191q80 0 181.5 -12.5t162.5 -25.5l62 -13l14 -26q-41 -164 -53 -377l-203 -13q6 52 6 111q0 86 -50 122t-169 36q-183 0 -272.5 -110.5t-89.5 -338.5q0 -253 89.5 -388.5t254.5 -135.5q54 0 103 13t71 27l22 13v191q0 60 -17.5 79t-72.5 19 h-104l-12 16l22 148q17 0 119 -2t166 -2q47 0 98 2t81 4.5t30 3.5l14 -80q-53 -35 -68.5 -98t-15.5 -240q0 -123 14 -178l-18 -27q-8 -3 -22.5 -8.5t-62.5 -20t-100.5 -25t-133.5 -19.5t-164 -9q-283 0 -447 173.5t-164 474.5z" />
<glyph unicode="H" horiz-adv-x="1529" d="M76 -18l14 133q90 19 119 52.5t29 119.5l2 788q0 64 -15 85.5t-59 21.5l-64 -2l-10 16l17 121q161 -2 243 -2q46 0 123.5 3.5t132.5 7.5l54 3l-11 -137q-77 -12 -97.5 -37t-25.5 -108l-12 -293l262 -4q127 0 242 14v311q0 63 -15 85t-59 22l-63 -2l-11 16l17 121 q174 -2 262 -2q41 0 116 3.5t130 7.5l55 3l-12 -135q-75 -10 -99.5 -32t-27.5 -81q-25 -492 -25 -809q0 -79 18 -108t68 -29l74 6l10 -16l-18 -131q-170 6 -299 6l-285 -4l16 135q87 2 117.5 40t30.5 148v261q-147 2 -221 2q-24 0 -96 -5t-131 -11l-60 -5l-4 -289 q0 -85 15.5 -112t62.5 -27l73 6l11 -14l-19 -131q-172 6 -250 6q-59 0 -136.5 -3t-132.5 -7.5t-56 -7.5z" />
<glyph unicode="I" horiz-adv-x="747" d="M74 -18l14 133q91 19 120.5 53t29.5 119l2 788q0 63 -15 85t-59 22l-72 -2l-10 16l14 121q21 0 126.5 -1t160.5 -1q40 0 112.5 3.5t125.5 7.5l53 3l-12 -137q-78 -10 -103.5 -32t-28.5 -79q-24 -425 -24 -809q0 -85 15.5 -112t62.5 -26l88 5l10 -14l-18 -131 q-214 6 -306 6q-51 0 -122.5 -4.5t-117.5 -9.5z" />
<glyph unicode="J" horiz-adv-x="681" d="M20 -231l5 22q116 85 155 177.5t39 283.5v823q0 65 -14 86t-58 21l-84 -6l-12 16l17 123h254q63 1 140 5t123 8l46 3l-13 -139q-65 -12 -83 -31t-23 -80q-8 -151 -16.5 -433.5t-8.5 -440.5q-2 -203 -99 -328t-310 -194z" />
<glyph unicode="K" horiz-adv-x="1349" d="M76 -6l18 131q89 13 116.5 44.5t27.5 117.5l2 788q0 64 -15 85.5t-59 21.5l-64 -2l-10 16l17 123q217 -4 276 -4q39 0 110 3.5t122 7.5l51 3l-13 -137q-76 -15 -102 -38.5t-27 -80.5l-18 -801v-24q0 -63 14 -87q16 -28 64 -28l80 6l8 -14l-19 -131q-207 6 -295 6z M547 647l6 45l301 328q53 53 53 100q0 31 -25 46t-83 18l-6 14l16 127q172 -10 256 -10l240 8l14 -23l-16 -116q-63 -26 -121.5 -77t-147.5 -157l-211 -237l271 -414q61 -93 113 -133.5t120 -44.5l12 -19l-16 -108q-203 -25 -240 -25q-64 0 -117.5 41t-109.5 131z" />
<glyph unicode="L" horiz-adv-x="1087" d="M86 -20l14 139q78 12 108 49.5t30 126.5v780q0 64 -15 85.5t-59 21.5l-62 -2l-10 16l14 121q21 0 124 -1t155 -1q41 0 120 3.5t138 7.5l59 3l-16 -145q-53 -6 -82 -14.5t-45.5 -27.5t-21 -41t-7.5 -67q-22 -304 -22 -749q0 -77 24 -100t103 -23q51 0 85 4.5t62.5 18 t45.5 33.5t31 57t22 83t16 115l174 19l14 -21q-35 -223 -55 -465l-18 -22q-334 16 -576 16q-81 0 -168.5 -5t-134.5 -10z" />
<glyph unicode="M" horiz-adv-x="1722" d="M55 -16l15 137q61 8 89 40t34 107q10 75 45.5 428t35.5 391q0 55 -29.5 74.5t-123.5 28.5l-10 12l18 123q184 -10 260 -10l223 8q56 -203 119.5 -413.5t98.5 -319.5l36 -109h17q131 388 268 836q3 -1 117 -3q52 -1 85 -1q39 0 50 2l207 12l8 -8l-12 -127 q-87 -6 -118.5 -29t-31.5 -80q0 -64 16.5 -317t32.5 -444q10 -110 31 -148.5t68 -38.5l59 4l8 -12l-18 -133q-125 6 -209 6q-47 0 -168.5 -6.5t-130.5 -9.5l16 139q60 6 86.5 29.5t26.5 70.5q0 36 -10 208t-20 326l-11 154h-19q-162 -447 -311 -925l-149 -19 q-174 557 -314 944h-16q-41 -661 -41 -710q0 -68 66 -68l67 4l12 -12l-22 -133q-176 8 -244 8q-36 0 -88 -4t-86 -8z" />
<glyph unicode="N" horiz-adv-x="1492" d="M70 1206l14 119q138 -10 238 -10q39 0 88 2t78 4l30 2q118 -193 255 -403.5t215 -324.5l77 -114h20l-4 613q-2 48 -17 68t-50 20q-17 0 -43 -1t-27 -1l-8 16l14 127q174 -8 264 -8q44 0 104.5 2.5t99.5 4.5l38 3l-10 -137q-68 -9 -98 -38.5t-31 -90.5l-27 -1088l-217 -26 q-141 226 -290 453t-227 342l-79 114h-20l-2 -631q0 -51 15.5 -71.5t53.5 -20.5l88 6l13 -14l-21 -131q-176 8 -264 8q-49 0 -112 -4t-102 -8l-38 -4l16 137q62 8 91 38t30 91l27 809q0 66 -33 91t-133 36z" />
<glyph unicode="O" horiz-adv-x="1380" d="M57 623q0 324 184 520t488 196q279 0 436.5 -170.5t157.5 -470.5q0 -326 -186 -524.5t-492 -198.5q-273 0 -430.5 174t-157.5 474zM375 705q0 -268 84 -409.5t237 -141.5q146 0 227 114t81 322q0 269 -86 410t-246 141q-140 0 -218.5 -113.5t-78.5 -322.5z" />
<glyph unicode="P" horiz-adv-x="1181" d="M80 -16l16 139q83 14 112.5 49t29.5 121l2 778q0 64 -14 87.5t-52 23.5l-72 -4l-10 16l17 123q18 0 113.5 -1t144.5 -1l311 10q111 0 198 -22t142.5 -59t91 -88.5t50 -107t14.5 -118.5q0 -121 -68 -228.5t-181.5 -172t-240.5 -64.5h-174l-2 -152q0 -115 16.5 -147.5 t77.5 -32.5l90 6l8 -12l-20 -133q-180 6 -258 6q-47 0 -130.5 -3.5t-146.5 -7.5t-65 -5zM514 647l180 -24q187 40 187 278q0 129 -72 188.5t-229 59.5q-30 0 -37 -5.5t-8 -31.5q-14 -203 -21 -465z" />
<glyph unicode="Q" horiz-adv-x="1390" d="M57 623q0 324 184 520t488 196q279 0 436.5 -170.5t157.5 -470.5q0 -233 -113 -412t-301 -255v-19q327 -229 549 -229q42 0 85.5 5t66.5 10l22 5l17 -14l22 -86q-9 -7 -24 -18.5t-55.5 -40.5t-74.5 -51.5t-69 -41t-51 -18.5q-95 0 -179.5 33.5t-211 123.5t-361.5 285 q-273 0 -430.5 174t-157.5 474zM375 705q0 -268 84 -409.5t237 -141.5q146 0 227 114t81 322q0 269 -86 410t-246 141q-140 0 -218.5 -113.5t-78.5 -322.5z" />
<glyph unicode="R" horiz-adv-x="1316" d="M74 -12l18 137q86 12 116 46t30 122l2 788q0 59 -14 80t-52 21l-72 -4l-10 16l17 125q178 -4 258 -4l313 10q235 0 360 -91t125 -261q0 -121 -70.5 -221.5t-203.5 -169.5l178 -287q58 -94 110.5 -136t116.5 -42l15 -19l-15 -108l-243 -23q-135 0 -224 191l-176 356h-143 l-2 -225q0 -103 23.5 -129t121.5 -30l9 -11l-21 -127q0 1 -49 2.5t-115 2.5t-110 1h-33q-43 0 -96 -2q-73 -2 -118 -5zM516 698l184 -20q174 73 174 256q0 112 -75 166.5t-230 54.5q-22 0 -28.5 -8.5t-8.5 -36.5q-13 -209 -16 -412z" />
<glyph unicode="S" horiz-adv-x="1105" d="M74 82q30 180 32 348l173 14q0 -167 47.5 -226.5t177.5 -59.5q97 0 155 42.5t58 114.5q0 21 -7.5 40.5t-17.5 34.5t-31 32.5t-36.5 29t-47.5 28.5t-50 26t-57 27.5t-56 27.5q-56 28 -96 50t-86.5 57t-74.5 70.5t-47.5 85.5t-19.5 106q0 180 153.5 294.5t393.5 114.5 q91 0 179 -13.5t130 -27.5l43 -14l15 -27q-36 -166 -50 -352l-155 -12l-19 14q2 33 2 72q0 89 -45.5 127.5t-152.5 38.5q-85 0 -140 -41t-55 -105q0 -25 9 -47.5t30.5 -44t40.5 -37t57 -36t61 -31.5t70 -33q48 -23 75.5 -36.5t71.5 -38.5t70 -45t57.5 -50.5t49 -60 t29.5 -68.5t12 -82q0 -188 -156 -301t-415 -113q-96 0 -186 19.5t-133 39.5l-42 19z" />
<glyph unicode="T" horiz-adv-x="1165" d="M10 874q19 240 23 441l22 22l207 -22h637l211 22l23 -22q2 -91 7 -198t9 -169l4 -61l-172 -13q-7 54 -11 84t-12 64t-14.5 49.5t-20.5 33t-28.5 24t-40 13t-52.5 8.5t-69 3q-22 -334 -22 -877q0 -76 25 -107.5t87 -31.5l109 6l8 -10l-18 -141q-251 8 -357 8 q-51 0 -137 -3t-146 -6l-61 -3l17 135q48 4 78 9t54.5 15.5t37 23.5t21 38t11 53.5t2.5 75.5v815q-44 -1 -73.5 -3t-56.5 -9t-42.5 -13t-30 -23t-21.5 -32.5t-14.5 -47t-11.5 -60t-10 -78.5z" />
<glyph unicode="U" horiz-adv-x="1341" d="M37 1186l18 135q176 -6 293 -6q37 0 98 3t104 6l42 3l-14 -139q-64 -7 -88 -30.5t-27 -78.5l-14 -596q0 -154 65 -237.5t188 -83.5q250 0 250 266l-8 643q-2 68 -14.5 89.5t-50.5 21.5l-68 -4l-4 8l16 135q162 -6 240 -6q46 0 107 3t99 6l38 3l-13 -137q-76 -17 -97 -35 t-21 -68v-636q0 -230 -136.5 -353t-392.5 -123q-475 0 -475 443v653q0 67 -13 89t-53 22l-65 -4z" />
<glyph unicode="V" d="M-14 1196l14 123q170 -4 258 -4q68 0 155 4t140 8l53 4l12 -16l-10 -125q-102 -9 -129.5 -23t-27.5 -55q0 -33 46.5 -244t92.5 -406l47 -194h31q47 121 152.5 464.5t105.5 387.5q0 35 -23.5 49.5t-81.5 14.5h-80l-10 14l14 127q173 -10 304 -10l237 4l-14 -135 q-49 -7 -70 -27.5t-41 -79.5l-377 -1067l-338 -41q-182 704 -299 1086q-19 65 -54.5 94.5t-98.5 32.5z" />
<glyph unicode="W" horiz-adv-x="1974" d="M-12 1196l14 123q164 -4 250 -4q74 0 158 4t131 8l47 4l10 -16l-10 -125q-98 -9 -126 -22.5t-28 -53.5q0 -36 45.5 -247.5t90.5 -404.5l46 -194h27q68 184 225 738q-5 39 -16 86q-10 50 -43.5 69t-106.5 21l-10 14l17 123q186 -4 280 -4q68 0 151.5 4t133.5 8l49 4 l10 -16l-10 -125q-101 -9 -127.5 -22.5t-26.5 -55.5q0 -33 45.5 -244t91.5 -406l46 -194h26q45 122 148.5 468t103.5 390q0 32 -22.5 45t-79.5 13h-78l-10 14l16 127q168 -10 293 -10l229 4l-14 -135q-46 -8 -66 -27.5t-40 -79.5l-361 -1067l-326 -41q-31 180 -176 731h-20 l-213 -690l-330 -41q-174 704 -289 1086q-19 65 -53 94.5t-94 32.5z" />
<glyph unicode="X" horiz-adv-x="1396" d="M14 12l13 123q120 43 297 275l202 268l-219 328q-56 83 -114.5 119.5t-147.5 52.5l-8 10l16 131q172 -4 326 -4q56 0 134.5 3.5t128.5 7.5l50 3l10 -18l-10 -119q-64 -3 -93.5 -18t-29.5 -44q0 -26 35.5 -85.5t118.5 -182.5q19 -28 29 -43q16 24 48.5 69.5t55 78.5 t46.5 70.5t37 64t13 39.5q0 25 -22.5 36.5t-77.5 14.5l-4 10l12 119q21 0 120.5 -3t149.5 -3l230 6l8 -14l-10 -125q-92 -31 -145.5 -75.5t-125.5 -143.5l-221 -306l240 -346q61 -87 123 -127.5t147 -44.5l6 -8l-16 -135q-180 6 -266 6q-46 0 -138.5 -4t-161.5 -8l-69 -4 l-10 14l12 125q58 3 84.5 16.5t26.5 40.5q0 26 -31 74l-176 260l-135 -190q-40 -57 -56 -86t-16 -50q0 -29 23.5 -43.5t76.5 -17.5l9 -14l-13 -127q-194 14 -266 14q-36 0 -95 -2.5t-101 -5.5l-41 -2z" />
<glyph unicode="Y" horiz-adv-x="1224" d="M-20 1188l16 131q182 -6 264 -6q46 0 128 4t141 8l59 4l10 -18l-10 -119q-68 -3 -95.5 -17t-27.5 -45q0 -21 37.5 -112t85.5 -196t51 -113h20l162 338q29 60 29 98q0 22 -25 33t-80 14l-4 10l15 119q21 0 121.5 -4t150.5 -4q42 0 94 2t84 4l31 2l8 -14l-14 -125 q-81 -26 -129.5 -80t-118.5 -182l-197 -367q-6 -11 -10 -22.5t-7.5 -20.5t-6 -23t-4.5 -22t-3 -25.5t-2 -26t-1.5 -30.5t-0.5 -32.5t-0.5 -39t-0.5 -41.5v-13q0 -65 18 -91q21 -29 78 -29l102 6l6 -10l-18 -141q-236 8 -338 8q-52 0 -132 -6t-134 -12l-53 -5l14 142 q118 15 151 51t33 141v62q0 54 -12.5 98.5t-46.5 110.5l-201 391q-49 99 -95 142.5t-136 62.5z" />
<glyph unicode="Z" horiz-adv-x="1187" d="M39 82l719 1083l-260 -16q-131 -15 -178.5 -66.5t-57.5 -193.5l-174 -12q29 254 35 442l20 20l365 -22l600 -6l37 -84q-330 -440 -739 -1077l319 22q103 9 159 83t81 232l174 15q-44 -268 -52 -469l-34 -39l-809 12l-154 -16z" />
<glyph unicode="[" horiz-adv-x="649" d="M166 -248q22 565 22 770q0 91 -5.5 285t-10.5 343l-6 148l446 23l9 -16l-15 -117l-213 -41v-1243l219 -43l9 -19l-15 -112z" />
<glyph unicode="\" horiz-adv-x="673" d="M25 1352l24 30h166l236 -919q36 -138 82.5 -304.5t74.5 -264.5l29 -97l-19 -22h-174q-86 328 -172 665z" />
<glyph unicode="]" horiz-adv-x="649" d="M29 -254l14 115l213 43v1243l-219 41l-8 18l14 115l440 -23q-22 -565 -22 -770q0 -91 5.5 -285t11.5 -343l5 -148l-446 -22z" />
<glyph unicode="^" horiz-adv-x="1001" d="M66 225q79 191 153 363l168 391l199 8l26 -16q105 -248 168 -393l156 -336l-133 -86l-33 10q-79 178 -149 334l-123 280h-15l-102 -254q-30 -70 -66 -162t-57 -149l-20 -57l-158 41z" />
<glyph unicode="_" horiz-adv-x="927" d="M-18 -340l22 156q28 0 211.5 -1t282.5 -1q90 0 266 4l168 4l16 -29l-22 -158q-175 0 -512 -2t-414 -2z" />
<glyph unicode="`" horiz-adv-x="815" d="M133 1362l111 143l26 2q176 -184 344 -348l-61 -80l-31 -8q-84 63 -181 128.5t-151 99.5l-55 34z" />
<glyph unicode="a" horiz-adv-x="980" d="M55 283q0 64 32.5 111t86.5 59l393 92l2 47q0 88 -45.5 136t-128.5 48q-54 0 -113.5 -24t-92.5 -48l-33 -24l-19 10l-37 123q31 18 80.5 44t152 70t146.5 44q173 0 257.5 -77.5t84.5 -203.5q0 -32 -20.5 -202t-20.5 -218q0 -37 20 -59.5t54 -22.5q22 0 46 9t37 17l13 9 l33 -43q-4 -7 -11.5 -19t-30 -44t-45 -58t-54 -51t-58.5 -33q-92 0 -144.5 40.5t-61.5 117.5l-17 6q-155 -155 -225 -155q-120 0 -200.5 85.5t-80.5 213.5zM301 307q0 -55 31.5 -90t81.5 -35q66 0 145 58l4 192l-215 -59q-47 -14 -47 -66z" />
<glyph unicode="b" horiz-adv-x="1052" d="M-4 1343l10 111q84 11 189.5 27.5t168.5 27.5l64 11l16 -39q-39 -45 -55 -650q183 134 221 134q180 0 284.5 -122t104.5 -331q0 -233 -144.5 -382.5t-371.5 -149.5q-73 0 -154 8t-126 16l-45 8l-21 21v1190q0 65 -18.5 89.5t-67.5 24.5q-12 0 -29 -1t-18 -1zM379 180 q68 -30 149 -30q97 0 151 74t54 210q0 153 -54 243.5t-144 90.5q-36 0 -78 -19t-72 -47z" />
<glyph unicode="c" horiz-adv-x="884" d="M51 449q0 229 140 375.5t360 146.5q68 0 133 -10.5t96 -21.5l31 -11l8 -19q-35 -145 -45 -317l-133 -8v67q0 71 -33 108.5t-94 37.5q-93 0 -141.5 -69.5t-48.5 -201.5q0 -167 57.5 -255.5t165.5 -88.5q50 0 104.5 15t83.5 30l29 15l16 -6l33 -107q-8 -6 -21 -16.5 t-52 -37t-75 -47t-81.5 -37t-79.5 -16.5q-211 0 -332 127t-121 347z" />
<glyph unicode="d" horiz-adv-x="1099" d="M51 432q0 232 146 382.5t372 150.5q66 0 103 -4v258q0 65 -18.5 89.5t-67.5 24.5l-49 -6l12 125q88 11 190 28t161 28l58 12l19 -35q-26 -40 -45 -398.5t-19 -814.5q0 -38 17.5 -61t48.5 -23q22 0 45 9t35 17l12 9l33 -43q-4 -7 -11 -18.5t-29 -42t-45 -56t-56.5 -51.5 t-65.5 -37q-184 0 -205 148l-14 4q-196 -143 -236 -143q-180 0 -285.5 120.5t-105.5 327.5zM319 508q0 -151 54.5 -241.5t144.5 -90.5q34 0 72.5 17t59.5 34l22 17v514q-60 35 -148 35q-98 0 -151.5 -74t-53.5 -211z" />
<glyph unicode="e" horiz-adv-x="948" d="M51 449q0 223 139 372.5t349 149.5q344 0 344 -353q0 -26 -3.5 -55t-7.5 -45l-4 -16l-24 -23h-527v-18q6 -136 73.5 -210.5t182.5 -74.5q57 0 118.5 15.5t94.5 30.5l33 16l17 -7l32 -104q-8 -6 -22.5 -16.5t-57.5 -36.5t-84 -46t-93.5 -36.5t-94.5 -16.5 q-216 0 -340.5 127t-124.5 347zM317 594l275 14q24 3 31.5 12t7.5 35q0 152 -129 152q-79 0 -127.5 -55t-57.5 -158z" />
<glyph unicode="f" horiz-adv-x="700" d="M49 803l17 106l124 21v16q1 264 141.5 419t375.5 155q63 0 121.5 -11t85.5 -21l28 -11l10 -33q-36 -82 -71 -182l-27 -7q-4 3 -10.5 8.5t-29 19t-46 23.5t-59 18.5t-70.5 8.5q-106 0 -150.5 -72.5t-46.5 -244.5l-2 -94l262 6l9 -10l-23 -140q-105 4 -250 6l-4 -553 q0 -49 20.5 -71.5t63.5 -22.5l125 4l6 -10l-18 -137q-207 6 -297 6q-51 0 -119 -3t-110 -6l-42 -3l15 127q60 7 86 34.5t26 81.5v478q-3 47 -29 63t-104 19z" />
<glyph unicode="g" horiz-adv-x="1048" d="M80 164q27 29 70 64t72 55l30 20v14q-74 41 -114 114t-40 167q0 160 121 267.5t305 107.5q46 0 114 -10.5t95 -10.5q45 4 117.5 21t121.5 32l50 15l12 -10l-26 -158q-74 -10 -150 -12l-8 -13q80 -86 80 -200q0 -160 -125.5 -263.5t-317.5 -103.5q-52 0 -127 14 q-53 -35 -53 -69q0 -72 199 -78q275 -7 384 -60.5t109 -179.5q0 -96 -76.5 -185.5t-202.5 -143.5t-263 -54q-167 0 -267 78.5t-100 210.5q25 29 76.5 66.5t89.5 60.5l39 23v12q-97 15 -156 72.5t-59 136.5zM346 -209q0 -60 50 -96.5t134 -36.5q95 0 164.5 44.5t69.5 104.5 q0 33 -24 51t-93 34t-225 38q-9 -8 -21.5 -21t-33.5 -49.5t-21 -68.5zM354 616q0 -102 45 -159.5t125 -57.5q73 0 112.5 51t39.5 148q0 104 -46.5 161.5t-129.5 57.5q-69 0 -107.5 -52.5t-38.5 -148.5z" />
<glyph unicode="h" horiz-adv-x="1114" d="M4 1346l12 108q84 11 189.5 27.5t168.5 27.5l64 11l15 -39q-42 -51 -58 -688q61 57 147 117.5t126 60.5q149 0 229 -68.5t80 -197.5q0 -37 -19.5 -233t-19.5 -249t14 -74.5t49 -21.5l62 2l4 -8l-18 -127q-144 6 -224 6q-36 0 -93 -4t-96 -8l-40 -4l12 129 q50 12 71.5 37.5t22.5 76.5l9 351q0 178 -131 178q-74 0 -187 -84q-4 -282 -4 -453q0 -51 14 -71.5t48 -20.5l51 4l4 -12l-21 -125q-139 6 -223 6l-227 -6l16 127q55 6 75.5 29.5t20.5 80.5v992q0 63 -18.5 87.5t-67.5 24.5h-47z" />
<glyph unicode="i" horiz-adv-x="600" d="M51 782l12 121q84 11 182.5 28t154.5 29l57 11l18 -35q-22 -44 -35.5 -244.5t-13.5 -474.5q0 -49 14.5 -69.5t48.5 -20.5l60 4l4 -8l-21 -129q-141 6 -227 6q-45 0 -108 -6t-103 -12l-41 -5l17 132q61 10 88.5 40.5t27.5 86.5v438q0 64 -19 89t-69 25zM160 1323 q0 73 45 118.5t117 45.5q66 0 105.5 -39.5t39.5 -108.5q0 -73 -46 -118t-118 -45q-67 0 -105 39t-38 108z" />
<glyph unicode="j" horiz-adv-x="561" d="M14 -438l4 24q88 86 119 188t31 300v600q0 65 -16 89.5t-58 24.5l-61 -6l12 119q74 11 171.5 28.5t158.5 29.5l61 12l19 -35q-45 -95 -45 -965q0 -144 -88 -269t-242 -202zM143 1323q0 73 45.5 118.5t118.5 45.5q66 0 105 -39.5t39 -108.5q0 -73 -45 -118t-117 -45 q-69 0 -107.5 39t-38.5 108z" />
<glyph unicode="k" horiz-adv-x="1062" d="M6 1360l10 94q84 11 189.5 27.5t168.5 27.5l64 11l15 -39q-28 -34 -46 -392.5t-18 -871.5q0 -51 14 -71.5t48 -20.5l53 4l4 -12l-23 -125q-141 8 -223 8q-44 0 -101 -3t-91 -6l-35 -3l14 129q64 9 81 40t17 117v949q0 53 -13 78.5t-44 31.5q-10 2 -25 2t-32 -1t-23 -1z M420 483l6 45l197 197q43 43 43 70q0 23 -24 32t-83 9l-6 10l18 104q144 -4 246 -4q42 0 97 2t90 4l34 2l6 -10l-18 -117q-31 -12 -65.5 -32.5t-59.5 -39t-64 -53.5t-57 -52.5t-61 -60t-55 -54.5l172 -267q52 -75 100.5 -111t107.5 -40l9 -17l-15 -102q-100 -23 -149 -25 q-11 -1 -21 -1q-35 0 -69 8q-54 12 -91.5 47t-82.5 112z" />
<glyph unicode="l" horiz-adv-x="542" d="M6 1360l10 94q84 11 189.5 27.5t168.5 27.5l64 11l15 -39q-28 -34 -46 -393t-18 -871q0 -51 13.5 -71.5t46.5 -19.5l69 3l4 -12l-20 -123q-154 6 -236 6q-45 0 -104 -4.5t-95 -9.5l-36 -4l16 129q66 14 83 46.5t17 116.5v949q0 53 -13 78.5t-44 31.5q-10 2 -25 2t-32 -1 t-23 -1z" />
<glyph unicode="m" horiz-adv-x="1718" d="M49 795l12 108q83 13 178 30t149 27l54 11l17 -21q-19 -71 -23 -141l6 -6q75 61 154 114.5t113 53.5q237 0 290 -172q57 51 146 111.5t125 60.5q147 0 228 -70t81 -196q0 -37 -18.5 -233t-18.5 -249t15 -74.5t51 -21.5l61 2l4 -8l-20 -127q-146 6 -226 6q-36 0 -91 -2.5 t-92 -5.5l-38 -2l13 131q48 6 67.5 29t20.5 77l6 351q0 91 -32 134.5t-99 43.5q-76 0 -172 -74l-27 -459q0 -53 13.5 -74.5t47.5 -21.5l58 2l4 -8l-21 -127q-139 6 -217 6q-36 0 -93 -4t-97 -8l-39 -4l12 129q50 12 71.5 37.5t22.5 76.5l7 351q0 178 -131 178 q-76 0 -177 -78q-20 -367 -20 -457q0 -52 13.5 -72t47.5 -20l54 4l6 -10l-23 -129q-135 6 -217 6l-244 -6l17 129q60 5 83 28t23 80v431q0 71 -21 96.5t-79 25.5h-27z" />
<glyph unicode="n" horiz-adv-x="1167" d="M49 795l12 108q83 13 178 30t149 27l54 11l17 -21q-19 -71 -23 -141l8 -8q69 60 149 115t116 55q146 0 227.5 -70t81.5 -196q0 -37 -18.5 -233t-18.5 -249t14 -74.5t49 -21.5l62 2l4 -8l-18 -127q-146 6 -224 6q-36 0 -93 -4t-97 -8l-39 -4l12 129q50 12 71.5 37.5 t22.5 76.5l7 351q0 178 -131 178q-71 0 -177 -76q-20 -375 -20 -459q0 -52 13.5 -72t47.5 -20l54 4l6 -10l-23 -129q-135 6 -217 6q-47 0 -108 -3t-99 -6l-37 -3l17 131q59 6 82.5 30.5t23.5 81.5v431q0 71 -21 96.5t-79 25.5h-27z" />
<glyph unicode="o" horiz-adv-x="1030" d="M51 444q0 235 137.5 381t358.5 146q200 0 316 -126t116 -343q0 -235 -136.5 -381t-357.5 -146q-196 0 -315 128.5t-119 340.5zM324 520q0 -193 52 -290t150 -97q176 0 176 275q0 193 -52 290t-150 97q-176 0 -176 -275z" />
<glyph unicode="p" horiz-adv-x="1101" d="M45 795l10 108q84 13 178.5 30t147.5 27l53 11l19 -21q-17 -70 -23 -129l8 -10q164 152 203 152q184 0 296 -124t112 -327q0 -240 -152 -386t-393 -146l-84 6v-189q0 -83 13.5 -112t60.5 -29q17 0 47.5 2t33.5 2l7 -8l-23 -127q-12 0 -109 2t-141 2q-51 0 -113.5 -3 t-99.5 -6l-37 -3l17 127q58 6 76 30.5t18 96.5l10 313v578q0 71 -21 96.5t-79 25.5h-27zM426 178q76 -28 152 -28q97 0 150.5 74t53.5 210q0 150 -54.5 237t-145.5 87q-65 0 -144 -60q-12 -240 -12 -520z" />
<glyph unicode="q" horiz-adv-x="1058" d="M51 432q0 232 146 382.5t372 150.5q99 0 228 -21l135 55l22 -24q-20 -42 -31.5 -363.5t-11.5 -818.5q0 -84 12 -108.5t52 -24.5l53 2l6 -6l-14 -127h-262l-254 -8l12 127q91 5 119 27.5t29 97.5l8 348q-196 -141 -230 -141q-180 0 -285.5 121.5t-105.5 330.5zM319 508 q0 -153 54.5 -243.5t144.5 -90.5q34 0 72.5 17.5t59.5 34.5l22 18v514q-60 35 -148 35q-98 0 -151.5 -74t-53.5 -211z" />
<glyph unicode="r" horiz-adv-x="845" d="M55 797l13 106q79 12 172.5 29t147.5 28l54 11l21 -19q-21 -102 -23 -190l13 -8q64 95 140.5 148.5t147.5 53.5q17 0 34.5 -2t26.5 -4l9 -2l8 -16q-33 -207 -41 -375l-133 -8q0 98 -12 130t-47 32q-69 0 -135 -88q-19 -357 -19 -394q0 -53 17 -73.5t61 -20.5l104 8l7 -12 l-23 -139q-170 8 -268 8q-56 0 -120.5 -2t-101.5 -4l-36 -2l16 127q62 5 83.5 33t21.5 106v406q0 70 -19 95t-70 25l-38 -2z" />
<glyph unicode="s" horiz-adv-x="837" d="M59 53q20 140 27 269l117 12q0 -207 180 -207q57 0 96 26t39 64q0 40 -40.5 73t-162.5 91q-123 57 -179 122t-56 152q0 139 119 227.5t307 88.5q59 0 116.5 -9.5t85.5 -18.5l27 -9l13 -23q-27 -129 -39 -266l-119 -6q4 25 4 35q-1 72 -36 105.5t-107 33.5q-53 0 -88 -25 t-35 -63q0 -39 32 -71.5t105 -67.5q178 -84 240.5 -147t62.5 -156q0 -129 -122 -218.5t-300 -89.5q-74 0 -142.5 14t-99.5 28l-32 14z" />
<glyph unicode="t" horiz-adv-x="679" d="M8 807l15 102q79 37 166 92.5t135 92.5l47 36l57 -30q-12 -65 -22 -178l239 6l8 -10l-20 -140l-240 6q-12 -238 -12 -442q0 -86 31 -125t100 -39q24 0 54.5 7t48.5 15l18 7l24 -68q-19 -18 -49.5 -45.5t-94 -73t-91.5 -45.5q-146 0 -214.5 61t-68.5 191v455 q0 65 -22 87.5t-88 23.5z" />
<glyph unicode="u" horiz-adv-x="1120" d="M31 782l12 121q77 11 171 28t149 29l55 11l20 -35q-23 -50 -39 -222t-16 -356q0 -85 31 -125t96 -40q27 0 61 13t56 26t57 36v418q0 59 -17.5 78.5t-70.5 21.5q-6 0 -20 -1l-15 -1l17 119q79 11 175 27t152 26l56 11l20 -35q-23 -47 -39 -238t-16 -422q0 -39 19 -61.5 t52 -22.5q22 0 46 9t37 17l14 9l32 -43q-5 -7 -13 -19.5t-33.5 -45t-50 -58.5t-57.5 -50.5t-61 -31.5q-188 0 -209 158l-16 8q-78 -73 -141 -118.5t-86 -45.5q-157 0 -239.5 66.5t-82.5 192.5l15 452q0 52 -16.5 76t-51.5 24z" />
<glyph unicode="v" horiz-adv-x="958" d="M-23 831l15 117q126 -2 194 -2q60 0 130 4t110 8l39 3l4 -11l-16 -121q-63 -6 -82 -15.5t-19 -37.5q0 -24 31 -161t63 -261l31 -125h23q182 507 182 549q0 24 -14.5 32.5t-53.5 8.5h-55l-8 15l16 114q129 -2 221 -2l187 2l-14 -127q-45 -6 -66 -28t-47 -91l-258 -702 l-268 -31q-164 596 -213 750q-33 99 -127 102z" />
<glyph unicode="w" horiz-adv-x="1515" d="M-16 831l14 117q124 -2 190 -2q60 0 129.5 4t108.5 8l39 3l4 -11l-16 -121q-62 -6 -79.5 -15.5t-17.5 -37.5q0 -25 30 -162t60 -261l31 -124h21q36 90 91.5 262.5t74.5 243.5q-11 46 -34 65t-77 19l-6 12l16 117q123 -2 189 -2q60 0 128 3t106 6l38 3l4 -10l-18 -121 q-63 -6 -80 -14.5t-17 -36.5q0 -24 30.5 -161t60.5 -261l30 -125h23q176 499 176 549q0 25 -13.5 34t-50.5 9h-55l-8 13l16 116q125 -4 217 -4l187 2l-17 -127q-44 -6 -63.5 -28t-44.5 -91l-254 -702l-258 -31q-4 30 -23 106.5t-54.5 211t-49.5 190.5h-23l-153 -477 l-264 -31q-162 596 -209 750q-34 99 -125 102z" />
<glyph unicode="x" horiz-adv-x="1017" d="M2 8l14 98q38 19 72 53.5t111 127.5l163 194l-137 191q-57 80 -100 110.5t-111 42.5l-4 9l13 114q120 -2 239 -2q56 0 119.5 2t98.5 4l36 2l6 -12l-12 -106q-42 0 -60 -9t-18 -30q0 -34 45 -92l84 -119l94 127q5 7 16 21t15 20t10.5 16t8.5 17.5t2 15.5q0 15 -16 21.5 t-58 6.5l-4 9l10 106h184l174 6l7 -12l-13 -111q-94 -49 -176 -151l-162 -211l158 -213q53 -71 97.5 -104t101.5 -37l6 -9l-19 -108q-135 4 -196 4l-291 -12l-6 10l14 102q43 2 61.5 10t18.5 27q0 21 -27 60l-120 165q-6 -8 -20 -25t-22 -27.5t-21.5 -27.5t-22 -28.5 t-19.5 -27t-17.5 -26t-13 -22t-9.5 -19.5t-3 -14q0 -22 16.5 -30.5t57.5 -10.5l6 -12l-14 -100q-152 8 -201 8l-160 -6z" />
<glyph unicode="y" horiz-adv-x="952" d="M-47 -328l16 27q131 10 237.5 84t174.5 199q-190 535 -283 749q-25 47 -52.5 66.5t-70.5 21.5l-4 10l15 117h159q63 0 140.5 3.5t125.5 7t48 4.5l4 -11l-19 -121q-58 -3 -78 -13.5t-20 -35.5q0 -29 35 -156.5t69 -240.5l35 -113h23q184 473 184 510q0 25 -12.5 34 t-46.5 9h-66l-6 11l17 118q125 -6 217 -6h190l-16 -125q-45 -11 -65.5 -30.5t-39.5 -69.5l-262 -633q-132 -315 -245 -450q-111 -132 -242 -132h-6q-29 0 -92.5 67t-63.5 99z" />
<glyph unicode="z" horiz-adv-x="937" d="M41 59l516 754l-184 -12q-107 -9 -145.5 -44.5t-45.5 -135.5l-104 -11q18 205 22 340l15 15l266 -17l475 -6l27 -61q-290 -384 -533 -752l217 18q88 10 132 65t63 177l108 10q-34 -224 -34 -376l-33 -33l-613 14l-114 -12z" />
<glyph unicode="{" horiz-adv-x="657" d="M90 494l8 98q75 22 120.5 60t45.5 91q0 42 -48 169.5t-48 189.5q0 102 83.5 169.5t221.5 67.5q31 0 68.5 -4.5t59.5 -8.5l22 -5l14 -21l-27 -114q-51 10 -84 10q-56 0 -85 -34t-29 -89q0 -38 27.5 -154t27.5 -161q0 -75 -42 -123.5t-108 -67.5v-12q70 -23 110 -73 t40 -126q0 -50 -27.5 -174.5t-27.5 -165.5q0 -58 30.5 -93.5t89.5 -35.5q16 0 37 3.5t34 6.5l13 3l17 -21l-23 -110q-62 -31 -164 -31q-124 0 -201 68.5t-77 168.5q0 64 48 190.5t48 162.5q0 123 -174 166z" />
<glyph unicode="|" horiz-adv-x="684" d="M238 -528q0 727 2 1093l2 1065l176 23l33 -23q-13 -695 -13 -1034l2 -1124l-178 -23z" />
<glyph unicode="}" horiz-adv-x="657" d="M23 -223l26 112q49 -10 82 -10q57 0 86 34t29 89q0 40 -28 160.5t-28 167.5q0 73 41.5 120.5t108.5 67.5v12q-150 53 -150 201q0 49 28 169t28 159q0 58 -30.5 93.5t-88.5 35.5q-17 0 -38 -2.5t-33 -5.5l-13 -2l-16 18l22 113q62 30 164 30q122 0 200.5 -69t78.5 -168 q0 -50 -24 -119t-48.5 -131t-24.5 -94q0 -65 47 -107.5t127 -58.5l-8 -96q-74 -20 -120 -60t-46 -94q0 -42 48.5 -168.5t48.5 -187.5q0 -108 -84 -178t-224 -70q-30 0 -67.5 4.5t-59.5 9.5l-22 4z" />
<glyph unicode="~" horiz-adv-x="1036" d="M55 440v23l187 207l39 8q53 0 232.5 -40t221.5 -40q25 0 63.5 29t64.5 59l26 29h22l72 -78v-21l-186 -208l-39 -9q-53 0 -233 40t-222 40q-24 0 -62.5 -28.5t-64.5 -56.5l-26 -29h-23z" />
<glyph unicode="&#xa1;" horiz-adv-x="583" d="M102 -459l127 928l131 23l33 -27l41 -881l-24 -35l-273 -45zM162 801q0 76 45 123t121 47q73 0 113 -42.5t40 -113.5q0 -74 -46 -121t-122 -47q-71 0 -111 42.5t-40 111.5z" />
<glyph unicode="&#xa2;" horiz-adv-x="884" d="M51 449q0 208 117 349.5t307 166.5l41 364l143 19l13 -19l-41 -362q48 -4 93 -14t66 -17l21 -8l8 -19q-35 -145 -45 -317l-133 -8v67q0 71 -33 108.5t-94 37.5q-93 0 -141.5 -69.5t-48.5 -201.5q0 -167 57.5 -255.5t165.5 -88.5q50 0 104.5 15t83.5 30l29 15l16 -6 l33 -107q-19 -15 -50 -38.5t-108.5 -65.5t-132.5 -48l-30 -286l-142 -17l-12 15l33 303q-151 35 -235.5 155t-84.5 302z" />
<glyph unicode="&#xa3;" horiz-adv-x="1060" d="M55 137q189 116 189 279v84q-3 47 -28 62t-103 20l-9 12l15 106l125 21v43q0 189 139.5 325t329.5 136q148 0 229 -31l10 -23l-65 -196l-39 -6q-139 78 -223 78q-72 0 -107.5 -47t-36.5 -148l-6 -139l309 6l9 -10l-23 -140q-139 6 -299 6l-4 -122q-2 -67 -28 -129.5 t-68 -98.5l116 25q43 0 145.5 -19.5t141.5 -19.5q60 0 95 40t38 114l51 -5q43 -74 43 -170q0 -94 -56 -154.5t-142 -60.5q-67 0 -227 50.5t-234 50.5q-107 0 -223 -74l-23 10z" />
<glyph unicode="&#xa4;" horiz-adv-x="909" d="M27 1018l6 35l143 102q101 -110 137 -147q67 36 150 36q81 0 151 -36l140 157l37 -8l104 -145l-147 -138q43 -72 43 -155t-39 -150l151 -137l-8 -35l-145 -106l-134 143q-68 -41 -153 -41q-83 0 -158 43l-139 -149l-35 8l-100 145q11 8 145 129q-37 67 -37 150 q0 85 41 153zM287 719q0 -74 51.5 -126t124.5 -52q74 0 127 52.5t53 125.5t-53 125.5t-127 52.5q-73 0 -124.5 -52t-51.5 -126z" />
<glyph unicode="&#xa5;" horiz-adv-x="1163" d="M43 909v49l12 76q133 -6 213 -6q28 0 158.5 6t138.5 8l10 -20l-10 -104q-60 -4 -78 -12.5t-18 -26.5q0 -21 33 -95l18 -47l96 -166l134 265q16 29 16 49q0 12 -7.5 17t-18.5 4.5t-29 3t-33 12.5q2 12 2 41l10 71q20 0 106.5 -3t131.5 -3l180 6l8 -12l-12 -113 q-69 -22 -101 -50.5t-77 -98.5l-49 -82q164 4 194 4l14 -18l-8 -117h-278l-54 -92q-12 -22 -20 -56q88 1 344 9l14 -21l-10 -117h-371q0 -40 3 -77q3 -38 14.5 -53.5t40.5 -16.5q10 -2 39 -2l69 4l6 -12l-16 -119q-203 6 -291 6q-43 0 -113 -4.5t-118 -9.5l-49 -4l12 122 q51 6 79.5 15t45 29.5t22 46t7.5 75.5q-84 0 -208 -1t-145 -1l-14 17l16 114h334q-18 46 -35 76l-39 72q-65 0 -155 -1t-105 -1l-14 14l16 115h181q-115 200 -242 235z" />
<glyph unicode="&#xa6;" horiz-adv-x="684" d="M238 -528q0 520 2 852l178 30l20 -20l2 -862l-178 -23zM240 758q0 146 1 436t1 436l176 23l33 -23q-11 -505 -13 -862l-180 -25z" />
<glyph unicode="&#xa7;" horiz-adv-x="1024" d="M57 631q0 85 56 161t147 132q-24 50 -24 106q0 129 103 219t253 90q98 0 174 -31t76 -71q0 -48 -21 -120t-41 -91h-39q-25 61 -73 100t-99 39q-38 0 -64 -26t-26 -64t27 -74.5t70 -68.5t95.5 -65t105 -70.5t95.5 -78.5t70 -95.5t27 -114.5q0 -86 -53.5 -165t-143.5 -134 q23 -51 23 -98q1 -78 -50 -150.5t-143 -119t-201 -46.5q-112 0 -195 47.5t-83 112.5q0 60 15.5 121t39.5 94l43 -2q15 -90 76 -148.5t139 -58.5q50 0 82.5 28t32.5 72q0 40 -27 76.5t-71 67.5t-96.5 63t-105 68.5t-96.5 77t-71 97t-27 120.5zM270 717q0 -59 48 -115.5 t109.5 -95.5t144 -95t128.5 -102q48 51 48 117q0 47 -29 91t-79 82.5t-102.5 73.5t-114 79t-99.5 84q-54 -51 -54 -119z" />
<glyph unicode="&#xa8;" horiz-adv-x="815" d="M94 1276q0 62 38 100.5t99 38.5q58 0 90.5 -34.5t32.5 -90.5q0 -60 -38 -98.5t-101 -38.5q-57 0 -89 34t-32 89zM459 1276q0 62 38 100.5t101 38.5q57 0 89 -34t32 -91q0 -60 -38 -98.5t-99 -38.5q-59 0 -91 34t-32 89z" />
<glyph unicode="&#xa9;" horiz-adv-x="1425" d="M88 600q0 169 83.5 313t227 228t312.5 84q127 0 243 -49.5t199.5 -133.5t132.5 -199.5t49 -242.5t-49 -242.5t-132.5 -199.5t-199.5 -133.5t-243 -49.5q-169 0 -312.5 84t-227 228t-83.5 313zM193 600q0 -107 41 -203.5t110 -167t165 -112t202 -41.5t203 41.5t167 112 t111 167t41 203.5t-41 203.5t-111 167t-167 112t-203 41.5t-202 -41.5t-165 -112t-110 -167t-41 -203.5zM375 592q0 166 97.5 262t272.5 96q42 0 96.5 -6.5t88.5 -13.5l33 -6l6 -15q-23 -88 -29 -207l-125 -6q2 27 2 54q0 42 -22.5 63t-77.5 21q-72 0 -107 -49.5t-35 -157.5 q0 -246 148 -246q54 0 82 31.5t37 101.5l121 10q-17 -115 -17 -205l-12 -16q-109 -39 -244 -39q-151 0 -233 89.5t-82 238.5z" />
<glyph unicode="&#xaa;" horiz-adv-x="698" d="M47 893q0 41 22.5 72.5t59.5 40.5l264 53v18q0 52 -29.5 81.5t-82.5 29.5q-35 0 -75 -15t-62 -30l-23 -15l-12 7l-29 90q196 106 262 106q127 0 186.5 -52t59.5 -134q0 -22 -13.5 -126.5t-13.5 -129.5q0 -23 11.5 -37t31.5 -14q13 0 28 4.5t24 9.5l8 4l20 -33 q-8 -14 -22 -35.5t-50.5 -61.5t-64.5 -48q-135 0 -144 102l-14 4q-100 -100 -151 -100q-80 0 -135.5 60.5t-55.5 148.5zM238 907q0 -33 18 -54.5t47 -21.5q39 0 84 25l4 121l-125 -31q-28 -8 -28 -39z" />
<glyph unicode="&#xab;" horiz-adv-x="923" d="M31 440v43q188 189 338 359l84 -51l8 -33q-38 -56 -101 -158.5t-81 -130.5q178 -289 182 -295l-8 -33l-84 -51q-67 74 -151.5 161.5t-135.5 138.5zM410 440v43q188 189 338 359l83 -51l9 -33q-38 -56 -102 -159.5t-81 -129.5q158 -256 183 -295l-9 -33l-83 -51 q-67 74 -151.5 161.5t-135.5 138.5z" />
<glyph unicode="&#xac;" horiz-adv-x="1036" d="M35 473l28 186q298 -2 480 -2q68 0 163.5 3.5t157.5 6.5l62 3l14 -27q-18 -143 -20 -293l2 -278l-187 -29l-22 14q2 210 2 398h-199l-467 -2z" />
<glyph unicode="&#xad;" horiz-adv-x="663" d="M72 422l14 160l336 39l151 20l19 -27l-17 -163l-485 -54z" />
<glyph unicode="&#xae;" horiz-adv-x="958" d="M61 1038q0 173 122.5 295.5t295.5 122.5t295.5 -122.5t122.5 -295.5t-122.5 -295t-295.5 -122t-295.5 122t-122.5 295zM139 1038q0 -140 100.5 -240t239.5 -100t239.5 100t100.5 240t-100.5 240t-239.5 100t-239.5 -100t-100.5 -240zM281 844l6 49q28 4 36.5 17.5 t8.5 50.5v219q0 23 -4.5 30t-16.5 7h-22l-4 6l6 43q4 0 37.5 -1t50.5 -1h22q46 4 72 4q176 0 176 -115q0 -78 -86 -125l49 -78q38 -58 74 -61l4 -6q-2 -29 -12.5 -35.5t-67.5 -9.5q-31 0 -49 12.5t-35 48.5l-51 105h-43v-56q0 -35 7 -43t40 -8l4 -6l-6 -45q-51 4 -80 4h-24z M434 1069q5 0 25 -2t30 -2q52 18 52 74q0 65 -90 65q-6 0 -8.5 -3t-2.5 -13q-1 -14 -2.5 -38t-2.5 -44t-1 -37z" />
<glyph unicode="&#xaf;" horiz-adv-x="815" d="M102 1210l29 156q194 -2 315 -2q45 0 110.5 3t107.5 6l43 3l16 -28l-25 -156l-288 -2l-285 -2z" />
<glyph unicode="&#xb0;" horiz-adv-x="618" d="M43 1071q0 112 77.5 190t188.5 78t188.5 -78t77.5 -190q0 -110 -78 -188t-188 -78t-188 78t-78 188zM162 1071q0 -63 42 -105t105 -42t105.5 42t42.5 105t-42.5 106.5t-105.5 43.5t-105 -43.5t-42 -106.5z" />
<glyph unicode="&#xb1;" horiz-adv-x="1036" d="M35 479l28 187q185 -2 351 -2q0 60 1 178t1 178l182 22l27 -14q-11 -206 -13 -364l375 12l14 -27l-20 -188q-62 0 -185.5 -1t-183.5 -1l2 -334l-180 -29l-22 15q0 182 2 348l-365 -2zM49 -174l23 156h475q172 0 256 2q166 3 166 6l16 -31l-22 -158q-170 0 -496 -2 t-399 -2z" />
<glyph unicode="&#xb2;" horiz-adv-x="720" d="M45 782l166 179q159 185 156 276q0 76 -86 76q-95 0 -177 -111h-20l-27 129q50 71 128.5 115.5t156.5 44.5q110 0 178 -52.5t68 -138.5t-60 -184.5t-213 -263.5l7 -12h116q60 0 85 26t36 95l125 10q-29 -158 -37 -271l-22 -18q-322 12 -455 12l-113 -10z" />
<glyph unicode="&#xb3;" horiz-adv-x="634" d="M45 834l25 24q55 -22 118 -22q73 0 119.5 29t46.5 73q0 47 -43.5 69.5t-138.5 22.5l-14 17l-13 98l91 18q42 19 67 49.5t25 65.5q0 29 -20 47t-54 18q-69 0 -148 -57h-16l-35 113q46 32 124.5 62t139.5 30q95 0 154 -44t59 -116q0 -59 -40 -107t-109 -73v-14 q97 -31 142.5 -77.5t45.5 -115.5q0 -64 -58 -126t-152.5 -101t-194.5 -39q-61 0 -88 35.5t-33 120.5z" />
<glyph unicode="&#xb4;" horiz-adv-x="815" d="M236 1159q75 73 160.5 160.5t133.5 138.5l48 51l28 -2l111 -143l-2 -29q-197 -123 -387 -264l-31 8z" />
<glyph unicode="&#xb6;" horiz-adv-x="1161" d="M49 889q0 187 129 310.5t336 123.5q56 0 159.5 -4t135.5 -4l295 6l-12 -127l-5 -8q-76 -6 -100 -23.5t-29 -70.5q-10 -71 -17 -328t-7 -414q0 -248 -123.5 -401.5t-349.5 -153.5q-117 0 -202 55.5t-85 143.5q0 47 25.5 112.5t60.5 108.5h33q6 -125 60 -194.5t139 -69.5 q107 0 145.5 65.5t38.5 231.5v903q0 21 -8.5 26t-46.5 5q-80 0 -121 -78.5t-41 -216.5q0 -134 30 -227t101 -191v-49q-156 6 -276.5 60t-192.5 160t-72 249z" />
<glyph unicode="&#xb7;" horiz-adv-x="487" d="M84 485q0 74 45 121t121 47q72 0 112.5 -42.5t40.5 -112.5q0 -75 -45 -121.5t-120 -46.5t-114.5 42t-39.5 113z" />
<glyph unicode="&#xb8;" horiz-adv-x="815" d="M182 -397q0 38 76 129h18q1 -55 30.5 -85t76.5 -30q36 0 59 17t23 44q0 54 -176 146l65 235h107l-43 -149q40 -23 65.5 -39.5t60 -44t52.5 -56.5t18 -59q0 -80 -83 -138t-189 -58q-58 0 -109 24.5t-51 63.5z" />
<glyph unicode="&#xb9;" horiz-adv-x="542" d="M41 1356l8 88q60 6 170 20q36 4 70.5 8t57.5 7.5t41 6t27 4.5l9 1l18 -47q-43 -34 -53 -101q-16 -128 -16 -460q0 -47 13.5 -67.5t45.5 -20.5l62 2l6 -6l-19 -101q-130 4 -200 4q-41 0 -98.5 -3.5t-94.5 -6.5l-37 -4l10 96q64 5 92.5 26.5t28.5 69.5v404q0 46 -13.5 61 t-51.5 15l-68 -4z" />
<glyph unicode="&#xba;" horiz-adv-x="724" d="M47 989q0 155 91 248.5t243 93.5q141 0 219 -81.5t78 -227.5q0 -156 -90 -250t-242 -94q-137 0 -218 84.5t-81 226.5zM260 1042q0 -129 26.5 -186t82.5 -57q48 0 71 37t23 118q0 129 -26.5 186.5t-82.5 57.5q-48 0 -71 -37.5t-23 -118.5z" />
<glyph unicode="&#xbb;" horiz-adv-x="923" d="M84 174q82 127 180 289q-122 201 -180 293l8 32l84 54q65 -74 149 -162t135 -140l52 -51v-40q-189 -189 -336 -359l-84 51zM463 174q82 127 180 289q-122 201 -180 293l8 32l84 54q65 -74 149 -162t136 -140l51 -51v-40q-189 -189 -336 -359l-84 51z" />
<glyph unicode="&#xbc;" horiz-adv-x="1560" d="M41 1196l8 86q34 3 170 21q57 6 108 12.5t74 10.5l23 3l18 -47q-42 -31 -53 -100q-16 -128 -16 -461q0 -46 13.5 -67t45.5 -21l62 4l6 -8l-19 -101q-130 7 -200 7q-41 0 -98.5 -3.5t-94.5 -7.5l-37 -4l10 94q63 5 92 27.5t29 69.5v403q0 46 -13.5 61t-51.5 15l-68 -4z M195 -106q247 369 423 647l537 848l127 -52l14 -39q-360 -547 -544 -833l-414 -655l-133 55zM889 197l4 108l348 488l10 4l146 -17v-452h102l14 -17l-14 -127l-100 2l8 -172l-14 -14l-185 -14l-10 12q6 103 8 195zM1047 328h159v213h-14z" />
<glyph unicode="&#xbd;" horiz-adv-x="1622" d="M41 1196l8 86q34 3 170 21q57 6 108 12.5t74 10.5l23 3l18 -47q-42 -31 -53 -100q-16 -128 -16 -461q0 -46 13.5 -67t45.5 -21l62 4l6 -8l-19 -101q-130 7 -200 7q-41 0 -98.5 -3.5t-94.5 -7.5l-37 -4l10 94q63 5 92 27.5t29 69.5v403q0 46 -13.5 61t-51.5 15l-68 -4z M195 -106q247 369 423 647l537 848l127 -52l14 -39q-360 -547 -544 -833l-414 -655l-133 55zM946 86l166 178q159 185 156 279q0 73 -86 73q-96 0 -176 -108h-21l-27 127q50 71 129 116.5t156 45.5q110 0 178 -53.5t68 -139.5q0 -85 -60.5 -185t-211.5 -263l6 -11h116 q60 0 85.5 25t35.5 96l125 10q-29 -157 -37 -270l-22 -18q-322 12 -455 12l-113 -12z" />
<glyph unicode="&#xbe;" horiz-adv-x="1560" d="M45 672l25 24q55 -22 118 -22q73 0 119.5 29t46.5 73q0 47 -43.5 69.5t-138.5 22.5l-14 17l-13 98l91 18q42 19 67 49.5t25 65.5q0 29 -20 47.5t-54 18.5q-66 0 -148 -56h-16l-35 111q46 32 124.5 62t139.5 30q95 0 154 -44t59 -116q0 -57 -40 -105.5t-109 -74.5v-14 q96 -29 142 -76.5t46 -116.5q0 -64 -58 -125.5t-152.5 -100t-194.5 -38.5q-61 0 -88 34.5t-33 119.5zM195 -106q247 369 423 647l537 848l127 -52l14 -39q-360 -547 -544 -833l-414 -655l-133 55zM889 197l4 108l348 488l10 4l146 -17v-452h102l14 -17l-14 -127l-100 2 l8 -172l-14 -14l-185 -14l-10 12q6 103 8 195zM1047 328h159v213h-14z" />
<glyph unicode="&#xbf;" horiz-adv-x="757" d="M20 -139q0 63 16.5 110.5t65 96t85 76t126.5 89.5q30 20 45 31l7 15l-31 170l12 22l180 37l25 -12l49 -258l-6 -29l-221 -129q-107 -66 -107 -148q0 -96 99.5 -150t275.5 -63l16 -28l-75 -172l-31 -15q-225 6 -378 108t-153 249zM281 801q0 76 44.5 123t120.5 47 q73 0 113.5 -42.5t40.5 -113.5q0 -74 -46 -121t-122 -47q-71 0 -111 42.5t-40 111.5z" />
<glyph unicode="&#xc0;" d="M-25 -6l17 137q48 8 78.5 38t54.5 97l364 1039l326 32l23 -10q183 -712 292 -1057q22 -73 57 -104t103 -37l8 -14l-14 -121q-162 6 -252 6q-78 0 -164.5 -4t-133.5 -8l-48 -4l-12 16l10 123q99 9 128.5 23.5t29.5 52.5q0 14 -11 67l-40 156q-53 2 -187 2q-80 0 -194 -14 l-52 -154q-12 -43 -12 -63q0 -35 20.5 -48.5t73.5 -13.5h88l9 -14l-15 -129q-168 12 -299 12zM336 1587l53 158l25 10q235 -117 456 -213l-26 -96l-29 -19q-104 33 -221 66.5t-182 50.5l-66 17zM459 586h143q66 0 152 8l-119 450h-29z" />
<glyph unicode="&#xc1;" d="M-25 -6l17 137q48 8 78.5 38t54.5 97l364 1039l326 32l23 -10q183 -712 292 -1057q22 -73 57 -104t103 -37l8 -14l-14 -121q-162 6 -252 6q-78 0 -164.5 -4t-133.5 -8l-48 -4l-12 16l10 123q99 9 128.5 23.5t29.5 52.5q0 14 -11 67l-40 156q-53 2 -187 2q-80 0 -194 -14 l-52 -154q-12 -43 -12 -63q0 -35 20.5 -48.5t73.5 -13.5h88l9 -14l-15 -129q-168 12 -299 12zM459 586h143q66 0 152 8l-119 450h-29zM471 1542q98 43 212.5 96t179.5 85l65 32l24 -10l54 -158l-13 -26q-236 -60 -469 -134l-26 19z" />
<glyph unicode="&#xc2;" d="M-25 -6l17 137q48 8 78.5 38t54.5 97l364 1039l326 32l23 -10q183 -712 292 -1057q22 -73 57 -104t103 -37l8 -14l-14 -121q-162 6 -252 6q-78 0 -164.5 -4t-133.5 -8l-48 -4l-12 16l10 123q99 9 128.5 23.5t29.5 52.5q0 14 -11 67l-40 156q-53 2 -187 2q-80 0 -194 -14 l-52 -154q-12 -43 -12 -63q0 -35 20.5 -48.5t73.5 -13.5h88l9 -14l-15 -129q-168 12 -299 12zM309 1540q68 50 148.5 113.5t126.5 102.5l47 38h41q0 2 45.5 -35t128.5 -103.5t147 -115.5l-49 -84l-33 -8q-81 40 -260 119q-111 -47 -258 -119l-33 8zM459 586h143q66 0 152 8 l-119 450h-29z" />
<glyph unicode="&#xc3;" d="M-25 -6l17 137q48 8 78.5 38t54.5 97l364 1039l326 32l23 -10q183 -712 292 -1057q22 -73 57 -104t103 -37l8 -14l-14 -121q-162 6 -252 6q-78 0 -164.5 -4t-133.5 -8l-48 -4l-12 16l10 123q99 9 128.5 23.5t29.5 52.5q0 14 -11 67l-40 156q-53 2 -187 2q-80 0 -194 -14 l-52 -154q-12 -43 -12 -63q0 -35 20.5 -48.5t73.5 -13.5h88l9 -14l-15 -129q-168 12 -299 12zM285 1483v22l159 197l35 8q35 0 156 -35t149 -35q22 0 55.5 27t56.5 53l22 27h22l82 -76v-20l-162 -199l-33 -8q-36 0 -157.5 34.5t-149.5 34.5q-22 0 -55 -26.5t-55 -52.5 l-23 -27h-22zM459 586h143q66 0 152 8l-119 450h-29z" />
<glyph unicode="&#xc4;" d="M-25 -6l17 137q48 8 78.5 38t54.5 97l364 1039l326 32l23 -10q183 -712 292 -1057q22 -73 57 -104t103 -37l8 -14l-14 -121q-162 6 -252 6q-78 0 -164.5 -4t-133.5 -8l-48 -4l-12 16l10 123q99 9 128.5 23.5t29.5 52.5q0 14 -11 67l-40 156q-53 2 -187 2q-80 0 -194 -14 l-52 -154q-12 -43 -12 -63q0 -35 20.5 -48.5t73.5 -13.5h88l9 -14l-15 -129q-168 12 -299 12zM338 1571q0 60 38 98.5t99 38.5q57 0 90 -34t33 -89q0 -62 -38 -100.5t-101 -38.5q-57 0 -89 34t-32 91zM459 586h143q66 0 152 8l-119 450h-29zM702 1571q0 60 38.5 98.5 t101.5 38.5q57 0 89 -34t32 -89q0 -62 -38.5 -100.5t-99.5 -38.5q-59 0 -91 34t-32 91z" />
<glyph unicode="&#xc5;" d="M-25 -6l17 137q48 8 78.5 38t54.5 97l364 1039l326 32l23 -10q183 -712 292 -1057q22 -73 57 -104t103 -37l8 -14l-14 -121q-162 6 -252 6q-78 0 -164.5 -4t-133.5 -8l-48 -4l-12 16l10 123q99 9 128.5 23.5t29.5 52.5q0 14 -11 67l-40 156q-53 2 -187 2q-80 0 -194 -14 l-52 -154q-12 -43 -12 -63q0 -35 20.5 -48.5t73.5 -13.5h88l9 -14l-15 -129q-168 12 -299 12zM459 586h143q66 0 152 8l-119 450h-29zM461 1575q0 84 54 139t142 55q93 0 138 -51.5t45 -126.5q0 -83 -54 -142.5t-145 -59.5q-86 0 -133 50.5t-47 135.5zM563 1583 q0 -43 28.5 -64.5t63.5 -21.5q32 0 57 16t25 58q0 39 -24.5 62.5t-69.5 23.5q-39 0 -59.5 -19.5t-20.5 -54.5z" />
<glyph unicode="&#xc6;" horiz-adv-x="1783" d="M-8 117q20 5 55.5 46t67.5 103l426 871q-4 25 -16.5 35t-35.5 10l-63 -4l-12 18l16 125q229 -6 496 -6q484 0 655 24l16 -22q-37 -183 -47 -373l-186 -12q4 53 4 82q0 36 -6 57t-20 37t-46 22.5t-75 9.5t-117 3q-68 0 -87.5 -10t-21.5 -46l54 -372l196 24l197 39l22 -20 l-26 -172l-187 -15l-180 -20l41 -252q12 -74 45.5 -106.5t97.5 -32.5q61 0 100 3t72 13t51 24.5t33 43t22.5 62.5t14.5 89l174 15l15 -21q-38 -184 -58 -381l-18 -22q0 -1 -92 2.5t-244.5 7.5t-265.5 4h-78q-74 0 -155.5 -4t-125.5 -8l-45 -4l-10 16l8 123q104 9 137 28 t33 70q0 27 -8 101l-24 188l-179 -23l-172 -32l-92 -199q-22 -51 -22 -76q0 -29 23.5 -39t88.5 -10l68 -10l-12 -133q-1 1 -61 4t-143 5.5t-136 2.5l-152 -6zM516 649l133 8l127 17l-47 370h-31z" />
<glyph unicode="&#xc7;" horiz-adv-x="1263" d="M57 623q0 327 194.5 521.5t522.5 194.5q76 0 174 -12.5t158 -25.5l59 -13l13 -26q-42 -171 -54 -388l-202 -14q4 56 4 109q0 89 -54 130.5t-170 41.5q-159 0 -242 -113t-83 -336q0 -249 90 -386.5t250 -137.5q111 0 172 67t86 216l203 14q-35 -213 -41 -383l-21 -25 q-19 -8 -53.5 -20t-138 -34t-203.5 -26l-19 -67q40 -23 65.5 -39.5t60.5 -44t53 -56.5t18 -59q0 -80 -83 -138t-189 -58q-58 0 -109 24.5t-51 63.5q0 38 76 129h18q1 -55 30.5 -85t76.5 -30q36 0 59 17t23 44q0 53 -177 146l43 153q-261 15 -410 186.5t-149 459.5z" />
<glyph unicode="&#xc8;" horiz-adv-x="1222" d="M74 -20l16 139q85 12 116.5 49.5t31.5 126.5l2 776q0 66 -13.5 88.5t-54.5 22.5l-61 -4l-15 18l17 125q225 -6 379 -6q435 0 622 24l16 -22q-37 -183 -47 -373l-188 -12q4 53 4 82q0 30 -3 49t-13.5 34.5t-26 23.5t-47 13.5t-69.5 7t-99 1.5q-72 0 -89.5 -11t-19.5 -57 l-14 -317q20 0 90 -1t101 -1q30 0 89.5 4t103.5 8l44 4l17 -18l-29 -176q-164 6 -266 6q-42 0 -156 -13q-6 -225 -6 -286q0 -82 21.5 -102.5t109.5 -20.5q68 0 110.5 2.5t78.5 12.5t55.5 24t35 42.5t23.5 62.5t16 89l174 15l15 -21q-38 -184 -58 -381l-18 -22 q-385 14 -639 14q-81 0 -170 -5t-138 -10zM307 1587l53 158l25 10q236 -117 457 -213l-27 -96l-29 -19q-104 33 -221 66.5t-183 50.5l-65 17z" />
<glyph unicode="&#xc9;" horiz-adv-x="1222" d="M74 -20l16 139q85 12 116.5 49.5t31.5 126.5l2 776q0 66 -13.5 88.5t-54.5 22.5l-61 -4l-15 18l17 125q225 -6 379 -6q435 0 622 24l16 -22q-37 -183 -47 -373l-188 -12q4 53 4 82q0 30 -3 49t-13.5 34.5t-26 23.5t-47 13.5t-69.5 7t-99 1.5q-72 0 -89.5 -11t-19.5 -57 l-14 -317q20 0 90 -1t101 -1q30 0 89.5 4t103.5 8l44 4l17 -18l-29 -176q-164 6 -266 6q-42 0 -156 -13q-6 -225 -6 -286q0 -82 21.5 -102.5t109.5 -20.5q68 0 110.5 2.5t78.5 12.5t55.5 24t35 42.5t23.5 62.5t16 89l174 15l15 -21q-38 -184 -58 -381l-18 -22 q-385 14 -639 14q-81 0 -170 -5t-138 -10zM473 1542q98 43 212.5 96t179.5 85l65 32l24 -10l54 -158l-13 -26q-236 -60 -469 -134l-26 19z" />
<glyph unicode="&#xca;" horiz-adv-x="1222" d="M74 -20l16 139q85 12 116.5 49.5t31.5 126.5l2 776q0 66 -13.5 88.5t-54.5 22.5l-61 -4l-15 18l17 125q225 -6 379 -6q435 0 622 24l16 -22q-37 -183 -47 -373l-188 -12q4 53 4 82q0 30 -3 49t-13.5 34.5t-26 23.5t-47 13.5t-69.5 7t-99 1.5q-72 0 -89.5 -11t-19.5 -57 l-14 -317q20 0 90 -1t101 -1q30 0 89.5 4t103.5 8l44 4l17 -18l-29 -176q-164 6 -266 6q-42 0 -156 -13q-6 -225 -6 -286q0 -82 21.5 -102.5t109.5 -20.5q68 0 110.5 2.5t78.5 12.5t55.5 24t35 42.5t23.5 62.5t16 89l174 15l15 -21q-38 -184 -58 -381l-18 -22 q-385 14 -639 14q-81 0 -170 -5t-138 -10zM311 1540q68 50 148.5 113.5t126.5 102.5l47 38h41q0 2 45.5 -35t128.5 -103.5t147 -115.5l-49 -84l-33 -8q-81 40 -260 119q-111 -47 -258 -119l-33 8z" />
<glyph unicode="&#xcb;" horiz-adv-x="1222" d="M74 -20l16 139q85 12 116.5 49.5t31.5 126.5l2 776q0 66 -13.5 88.5t-54.5 22.5l-61 -4l-15 18l17 125q225 -6 379 -6q435 0 622 24l16 -22q-37 -183 -47 -373l-188 -12q4 53 4 82q0 30 -3 49t-13.5 34.5t-26 23.5t-47 13.5t-69.5 7t-99 1.5q-72 0 -89.5 -11t-19.5 -57 l-14 -317q20 0 90 -1t101 -1q30 0 89.5 4t103.5 8l44 4l17 -18l-29 -176q-164 6 -266 6q-42 0 -156 -13q-6 -225 -6 -286q0 -82 21.5 -102.5t109.5 -20.5q68 0 110.5 2.5t78.5 12.5t55.5 24t35 42.5t23.5 62.5t16 89l174 15l15 -21q-38 -184 -58 -381l-18 -22 q-385 14 -639 14q-81 0 -170 -5t-138 -10zM338 1571q0 60 38 98.5t99 38.5q57 0 90 -34t33 -89q0 -62 -38 -100.5t-101 -38.5q-57 0 -89 34t-32 91zM702 1571q0 60 38.5 98.5t101.5 38.5q57 0 89 -34t32 -89q0 -62 -38.5 -100.5t-99.5 -38.5q-59 0 -91 34t-32 91z" />
<glyph unicode="&#xcc;" horiz-adv-x="747" d="M37 1587l53 158l25 10q235 -117 456 -213l-26 -96l-29 -19q-104 33 -221 66.5t-183 50.5l-65 17zM74 -18l14 133q91 19 120.5 53t29.5 119l2 788q0 63 -15 85t-59 22l-72 -2l-10 16l14 121q21 0 126.5 -1t160.5 -1q40 0 112.5 3.5t125.5 7.5l53 3l-12 -137 q-78 -10 -103.5 -32t-28.5 -79q-24 -425 -24 -809q0 -85 15.5 -112t62.5 -27l88 6l10 -14l-18 -131q-214 6 -306 6q-51 0 -122.5 -4.5t-117.5 -9.5z" />
<glyph unicode="&#xcd;" horiz-adv-x="747" d="M74 -18l14 133q91 19 120.5 53t29.5 119l2 788q0 63 -15 85t-59 22l-72 -2l-10 16l14 121q21 0 126.5 -1t160.5 -1q40 0 112.5 3.5t125.5 7.5l53 3l-12 -137q-78 -10 -103.5 -32t-28.5 -79q-24 -425 -24 -809q0 -85 15.5 -112t62.5 -27l88 6l10 -14l-18 -131 q-214 6 -306 6q-51 0 -122.5 -4.5t-117.5 -9.5zM203 1542q98 43 212 96t179 85l65 32l25 -10l53 -158l-12 -26q-236 -60 -469 -134l-27 19z" />
<glyph unicode="&#xce;" horiz-adv-x="747" d="M39 1540q68 50 148.5 113.5t126.5 102.5l46 38h41q0 2 46 -35t129 -104t147 -115l-49 -84l-33 -8q-81 40 -260 119q-111 -47 -258 -119l-33 8zM74 -18l14 133q91 19 120.5 53t29.5 119l2 788q0 63 -15 85t-59 22l-72 -2l-10 16l14 121q21 0 126.5 -1t160.5 -1 q40 0 112.5 3.5t125.5 7.5l53 3l-12 -137q-78 -10 -103.5 -32t-28.5 -79q-24 -425 -24 -809q0 -85 15.5 -112t62.5 -27l88 6l10 -14l-18 -131q-214 6 -306 6q-51 0 -122.5 -4.5t-117.5 -9.5z" />
<glyph unicode="&#xcf;" horiz-adv-x="747" d="M68 1571q0 60 38 98.5t99 38.5q57 0 90 -34t33 -89q0 -62 -38.5 -100.5t-101.5 -38.5q-57 0 -88.5 34t-31.5 91zM74 -18l14 133q91 19 120.5 53t29.5 119l2 788q0 63 -15 85t-59 22l-72 -2l-10 16l14 121q21 0 126.5 -1t160.5 -1q40 0 112.5 3.5t125.5 7.5l53 3l-12 -137 q-78 -10 -103.5 -32t-28.5 -79q-24 -425 -24 -809q0 -85 15.5 -112t62.5 -27l88 6l10 -14l-18 -131q-214 6 -306 6q-51 0 -122.5 -4.5t-117.5 -9.5zM432 1571q0 61 38 99t101 38q57 0 89 -34t32 -89q0 -62 -38 -100.5t-99 -38.5q-59 0 -91 34t-32 91z" />
<glyph unicode="&#xd0;" horiz-adv-x="1452" d="M16 600l21 123h233v346q0 66 -12.5 88.5t-50.5 22.5l-68 -4l-12 18l16 127q181 -6 263 -6l323 10q309 0 486.5 -164t177.5 -450q0 -213 -90.5 -381t-252.5 -261.5t-368 -93.5q-194 25 -311 25q-47 0 -112.5 -5t-107.5 -10l-42 -5l14 139q93 17 120 56t27 157v254h-237z M537 299q0 -87 34 -116t136 -29q179 0 270.5 124t91.5 369q0 259 -109.5 379.5t-338.5 120.5q-34 0 -46.5 -10t-13.5 -39l-16 -375l256 4l12 -18l-12 -123h-260z" />
<glyph unicode="&#xd1;" horiz-adv-x="1492" d="M70 1206l14 119q138 -10 238 -10q39 0 88 2t78 4l30 2q118 -193 255 -403.5t215 -324.5l77 -114h20l-4 613q-2 48 -17 68t-50 20q-17 0 -43 -1t-27 -1l-8 16l14 127q174 -8 264 -8q44 0 104.5 2.5t99.5 4.5l38 3l-10 -137q-68 -9 -98 -38.5t-31 -90.5l-27 -1088l-217 -26 q-141 226 -290 453t-227 342l-79 114h-20l-2 -631q0 -51 15.5 -71.5t53.5 -20.5l88 6l13 -14l-21 -131q-176 8 -264 8q-49 0 -112 -4t-102 -8l-38 -4l16 137q62 8 91 38t30 91l27 809q0 66 -33 91t-133 36zM408 1483v22l159 197l35 8q35 0 156 -35t149 -35q22 0 55 27t56 53 l22 27h23l82 -76v-20l-162 -199l-33 -8q-36 0 -157.5 34.5t-149.5 34.5q-22 0 -55 -26.5t-56 -52.5l-22 -27h-23z" />
<glyph unicode="&#xd2;" horiz-adv-x="1380" d="M57 623q0 324 184 520t488 196q279 0 436.5 -170.5t157.5 -470.5q0 -326 -186 -524.5t-492 -198.5q-273 0 -430.5 174t-157.5 474zM340 1587l53 158l25 10q235 -117 456 -213l-26 -96l-29 -19q-104 33 -221 66.5t-182 50.5l-66 17zM375 705q0 -268 84 -409.5t237 -141.5 q146 0 227 114t81 322q0 269 -86 410t-246 141q-140 0 -218.5 -113.5t-78.5 -322.5z" />
<glyph unicode="&#xd3;" horiz-adv-x="1380" d="M57 623q0 324 184 520t488 196q279 0 436.5 -170.5t157.5 -470.5q0 -326 -186 -524.5t-492 -198.5q-273 0 -430.5 174t-157.5 474zM375 705q0 -268 84 -409.5t237 -141.5q146 0 227 114t81 322q0 269 -86 410t-246 141q-140 0 -218.5 -113.5t-78.5 -322.5zM506 1542 q98 43 212.5 96t179.5 85l65 32l24 -10l53 -158l-12 -26q-236 -60 -469 -134l-27 19z" />
<glyph unicode="&#xd4;" horiz-adv-x="1380" d="M57 623q0 324 184 520t488 196q279 0 436.5 -170.5t157.5 -470.5q0 -326 -186 -524.5t-492 -198.5q-273 0 -430.5 174t-157.5 474zM342 1540q68 50 148.5 113.5t127.5 102.5l46 38h41q0 2 45.5 -35t128.5 -103.5t147 -115.5l-49 -84l-33 -8q-81 40 -260 119 q-111 -47 -258 -119l-33 8zM375 705q0 -268 84 -409.5t237 -141.5q146 0 227 114t81 322q0 269 -86 410t-246 141q-140 0 -218.5 -113.5t-78.5 -322.5z" />
<glyph unicode="&#xd5;" horiz-adv-x="1380" d="M57 623q0 324 184 520t488 196q279 0 436.5 -170.5t157.5 -470.5q0 -326 -186 -524.5t-492 -198.5q-273 0 -430.5 174t-157.5 474zM317 1483v22l160 197l35 8q35 0 156 -35t149 -35q22 0 55 27t56 53l22 27h23l82 -76v-20l-162 -199l-33 -8q-36 0 -157.5 34.5 t-149.5 34.5q-22 0 -55 -26.5t-56 -52.5l-22 -27h-23zM375 705q0 -268 84 -409.5t237 -141.5q146 0 227 114t81 322q0 269 -86 410t-246 141q-140 0 -218.5 -113.5t-78.5 -322.5z" />
<glyph unicode="&#xd6;" horiz-adv-x="1380" d="M57 623q0 324 184 520t488 196q279 0 436.5 -170.5t157.5 -470.5q0 -326 -186 -524.5t-492 -198.5q-273 0 -430.5 174t-157.5 474zM371 1571q0 60 38 98.5t99 38.5q57 0 90 -34t33 -89q0 -62 -38 -100.5t-101 -38.5q-57 0 -89 34t-32 91zM375 705q0 -268 84 -409.5 t237 -141.5q146 0 227 114t81 322q0 269 -86 410t-246 141q-140 0 -218.5 -113.5t-78.5 -322.5zM735 1571q0 61 38.5 99t100.5 38q57 0 89 -34t32 -89q0 -62 -38 -100.5t-99 -38.5q-59 0 -91 34t-32 91z" />
<glyph unicode="&#xd7;" horiz-adv-x="1036" d="M106 770l7 29l151 108q135 -139 254 -256l258 275l25 -11l117 -143l-261 -262q51 -50 118.5 -112.5t108.5 -99.5l42 -38l-11 -27l-147 -118l-254 252l-252 -256l-29 6l-104 147q129 127 244 242z" />
<glyph unicode="&#xd8;" horiz-adv-x="1380" d="M57 623q0 324 184 520t488 196q137 0 244 -43l121 197l127 -59l6 -27l-117 -186q103 -82 158 -215.5t55 -307.5q0 -326 -186 -524.5t-492 -198.5q-129 0 -244 43l-143 -237l-123 59l-6 21l141 235q-213 173 -213 527zM375 705q0 -214 53 -347l418 723q-72 60 -174 60 q-140 0 -218.5 -113.5t-78.5 -322.5zM520 219q71 -65 176 -65q146 0 227 114t81 322q0 218 -60 356z" />
<glyph unicode="&#xd9;" horiz-adv-x="1341" d="M37 1186l18 135q176 -6 293 -6q37 0 98 3t104 6l42 3l-14 -139q-64 -7 -88 -30.5t-27 -78.5l-14 -596q0 -154 65 -237.5t188 -83.5q250 0 250 266l-8 643q-2 68 -14.5 89.5t-50.5 21.5l-68 -4l-4 8l16 135q162 -6 240 -6q46 0 107 3t99 6l38 3l-13 -137q-76 -17 -97 -35 t-21 -68v-636q0 -230 -136.5 -353t-392.5 -123q-475 0 -475 443v653q0 67 -13 89t-53 22l-65 -4zM352 1587l54 158l24 10q236 -117 457 -213l-27 -96l-29 -19q-104 33 -221 66.5t-182 50.5l-66 17z" />
<glyph unicode="&#xda;" horiz-adv-x="1341" d="M37 1186l18 135q176 -6 293 -6q37 0 98 3t104 6l42 3l-14 -139q-64 -7 -88 -30.5t-27 -78.5l-14 -596q0 -154 65 -237.5t188 -83.5q250 0 250 266l-8 643q-2 68 -14.5 89.5t-50.5 21.5l-68 -4l-4 8l16 135q162 -6 240 -6q46 0 107 3t99 6l38 3l-13 -137q-76 -17 -97 -35 t-21 -68v-636q0 -230 -136.5 -353t-392.5 -123q-475 0 -475 443v653q0 67 -13 89t-53 22l-65 -4zM518 1542q98 43 212.5 96t179.5 85l65 32l24 -10l54 -158l-13 -26q-236 -60 -469 -134l-26 19z" />
<glyph unicode="&#xdb;" horiz-adv-x="1341" d="M37 1186l18 135q176 -6 293 -6q37 0 98 3t104 6l42 3l-14 -139q-64 -7 -88 -30.5t-27 -78.5l-14 -596q0 -154 65 -237.5t188 -83.5q250 0 250 266l-8 643q-2 68 -14.5 89.5t-50.5 21.5l-68 -4l-4 8l16 135q162 -6 240 -6q46 0 107 3t99 6l38 3l-13 -137q-76 -17 -97 -35 t-21 -68v-636q0 -230 -136.5 -353t-392.5 -123q-475 0 -475 443v653q0 67 -13 89t-53 22l-65 -4zM356 1540q68 50 148.5 113.5t127.5 102.5l46 38h41q0 2 45.5 -35t128.5 -103.5t147 -115.5l-49 -84l-33 -8q-81 40 -260 119q-111 -47 -258 -119l-32 8z" />
<glyph unicode="&#xdc;" horiz-adv-x="1341" d="M37 1186l18 135q176 -6 293 -6q37 0 98 3t104 6l42 3l-14 -139q-64 -7 -88 -30.5t-27 -78.5l-14 -596q0 -154 65 -237.5t188 -83.5q250 0 250 266l-8 643q-2 68 -14.5 89.5t-50.5 21.5l-68 -4l-4 8l16 135q162 -6 240 -6q46 0 107 3t99 6l38 3l-13 -137q-76 -17 -97 -35 t-21 -68v-636q0 -230 -136.5 -353t-392.5 -123q-475 0 -475 443v653q0 67 -13 89t-53 22l-65 -4zM383 1571q0 60 38 98.5t99 38.5q57 0 90 -34t33 -89q0 -62 -38 -100.5t-101 -38.5q-57 0 -89 34t-32 91zM748 1571q0 61 38 99t101 38q57 0 89 -34t32 -89q0 -62 -38.5 -100.5 t-99.5 -38.5q-59 0 -90.5 34t-31.5 91z" />
<glyph unicode="&#xdd;" horiz-adv-x="1224" d="M-20 1188l16 131q182 -6 264 -6q46 0 128 4t141 8l59 4l10 -18l-10 -119q-68 -3 -95.5 -17t-27.5 -45q0 -21 37.5 -112t85.5 -196t51 -113h20l162 338q29 60 29 98q0 22 -25 33t-80 14l-4 10l15 119q21 0 121.5 -4t150.5 -4q42 0 94 2t84 4l31 2l8 -14l-14 -125 q-81 -26 -129.5 -80t-118.5 -182l-197 -367q-6 -11 -10 -22.5t-7.5 -20.5t-6 -23t-4.5 -22t-3 -25.5t-2 -26t-1.5 -30.5t-0.5 -32.5t-0.5 -39t-0.5 -41.5q-2 -75 18.5 -104t77.5 -29l102 6l6 -10l-18 -141q-236 8 -338 8q-52 0 -132 -6t-134 -12l-53 -5l14 142 q118 15 151 51t33 141v62q0 54 -12.5 98.5t-46.5 110.5l-201 391q-49 99 -95 142.5t-136 62.5zM483 1542q98 43 212.5 96t179.5 85l65 32l25 -10l53 -158l-12 -26q-236 -60 -469 -134l-27 19z" />
<glyph unicode="&#xde;" horiz-adv-x="1173" d="M74 -18l14 133q90 19 120 52.5t30 119.5l2 788q0 63 -15 85t-59 22l-72 -2l-10 16l14 121q21 0 126.5 -1t160.5 -1q40 0 112.5 3.5t125.5 7.5l53 3l-12 -137q-79 -12 -104 -30t-28 -64q-1 -9 -2 -20t-1.5 -17.5t-0.5 -11.5h156q465 0 465 -361q0 -110 -65.5 -200 t-179 -141.5t-251.5 -51.5h-145v-62q0 -61 15.5 -80.5t62.5 -19.5l98 6l8 -14l-18 -131q-220 6 -314 6q-51 0 -122.5 -4.5t-117.5 -9.5zM510 475q106 -29 170 -29q178 27 178 222q0 112 -70 163.5t-221 51.5q-27 0 -36 -6t-11 -23q-10 -250 -10 -379z" />
<glyph unicode="&#xdf;" horiz-adv-x="1308" d="M49 803l17 106l124 21q0 278 137 434t380 156q167 0 276 -81.5t109 -207.5q0 -57 -23.5 -108t-57.5 -88t-68 -71.5t-57.5 -72.5t-23.5 -76q0 -34 24 -64.5t63 -55t85.5 -49.5t93 -56t85.5 -67t63 -88.5t24 -115.5q0 -145 -118 -244.5t-291 -99.5q-105 0 -183 34.5 t-90 86.5q1 43 30 115t59 111l41 -3q5 -82 52 -131t122 -49q51 0 85.5 36t34.5 89q0 43 -32 80.5t-79.5 64t-103.5 60.5t-103.5 69t-79.5 91t-32 125q0 51 24 99t58.5 84.5t69 71.5t58.5 74.5t24 79.5q0 77 -56.5 123.5t-150.5 46.5q-106 0 -151.5 -72.5t-45.5 -244.5 l-8 -785q-1 -45 16.5 -69.5t51.5 -24.5l76 2l6 -8l-19 -137q-157 6 -231 6q-44 0 -110.5 -2.5t-113.5 -5.5t-47 -4l15 127q65 7 88.5 35.5t23.5 95.5v463q-3 46 -29.5 62.5t-103.5 19.5z" />
<glyph unicode="&#xe0;" horiz-adv-x="980" d="M55 283q0 64 32.5 111t86.5 59l393 92l2 47q0 88 -45.5 136t-128.5 48q-54 0 -113.5 -24t-92.5 -48l-33 -24l-19 10l-37 123q31 18 80.5 44t152 70t146.5 44q173 0 257.5 -77.5t84.5 -203.5q0 -32 -20.5 -202t-20.5 -218q0 -37 20 -59.5t54 -22.5q22 0 46 9t37 17l13 9 l33 -43q-4 -7 -11.5 -19t-30 -44t-45 -58t-54 -51t-58.5 -33q-92 0 -144.5 40.5t-61.5 117.5l-17 6q-155 -155 -225 -155q-120 0 -200.5 85.5t-80.5 213.5zM188 1364l111 143l27 2q176 -184 344 -348l-62 -80l-30 -8q-84 63 -181 128.5t-152 99.5l-55 34zM301 307 q0 -55 31.5 -90t81.5 -35q66 0 145 58l4 192l-215 -59q-47 -14 -47 -66z" />
<glyph unicode="&#xe1;" horiz-adv-x="980" d="M55 283q0 64 32.5 111t86.5 59l393 92l2 47q0 88 -45.5 136t-128.5 48q-54 0 -113.5 -24t-92.5 -48l-33 -24l-19 10l-37 123q31 18 80.5 44t152 70t146.5 44q173 0 257.5 -77.5t84.5 -203.5q0 -32 -20.5 -202t-20.5 -218q0 -37 20 -59.5t54 -22.5q22 0 46 9t37 17l13 9 l33 -43q-4 -7 -11.5 -19t-30 -44t-45 -58t-54 -51t-58.5 -33q-92 0 -144.5 40.5t-61.5 117.5l-17 6q-155 -155 -225 -155q-120 0 -200.5 85.5t-80.5 213.5zM295 1161q75 73 160.5 160.5t133.5 138.5l48 51l29 -2l110 -143l-2 -29q-197 -123 -387 -264l-31 8zM301 307 q0 -55 31.5 -90t81.5 -35q66 0 145 58l4 192l-215 -59q-47 -14 -47 -66z" />
<glyph unicode="&#xe2;" horiz-adv-x="980" d="M55 283q0 64 32.5 111t86.5 59l393 92l2 47q0 88 -45.5 136t-128.5 48q-54 0 -113.5 -24t-92.5 -48l-33 -24l-19 10l-37 123q31 18 80.5 44t152 70t146.5 44q173 0 257.5 -77.5t84.5 -203.5q0 -32 -20.5 -202t-20.5 -218q0 -37 20 -59.5t54 -22.5q22 0 46 9t37 17l13 9 l33 -43q-4 -7 -11.5 -19t-30 -44t-45 -58t-54 -51t-58.5 -33q-92 0 -144.5 40.5t-61.5 117.5l-17 6q-155 -155 -225 -155q-120 0 -200.5 85.5t-80.5 213.5zM137 1180q64 62 142 140.5t124 126.5l46 48h40q165 -176 310 -315l-60 -84l-30 -9q-39 31 -84 63t-95 66t-61 41 q-156 -101 -240 -170l-32 9zM301 307q0 -55 31.5 -90t81.5 -35q66 0 145 58l4 192l-215 -59q-47 -14 -47 -66z" />
<glyph unicode="&#xe3;" horiz-adv-x="980" d="M55 283q0 64 32.5 111t86.5 59l393 92l2 47q0 88 -45.5 136t-128.5 48q-54 0 -113.5 -24t-92.5 -48l-33 -24l-19 10l-37 123q31 18 80.5 44t152 70t146.5 44q173 0 257.5 -77.5t84.5 -203.5q0 -32 -20.5 -202t-20.5 -218q0 -37 20 -59.5t54 -22.5q22 0 46 9t37 17l13 9 l33 -43q-4 -7 -11.5 -19t-30 -44t-45 -58t-54 -51t-58.5 -33q-92 0 -144.5 40.5t-61.5 117.5l-17 6q-155 -155 -225 -155q-120 0 -200.5 85.5t-80.5 213.5zM92 1180v22l162 207l33 8q36 0 157.5 -33.5t149.5 -33.5q21 0 54 28.5t56 57.5l23 28h23l79 -75v-21l-159 -209 l-35 -8q-35 0 -156 35t-149 35q-23 0 -56 -28.5t-55 -57.5l-22 -29h-23zM301 307q0 -55 31.5 -90t81.5 -35q66 0 145 58l4 192l-215 -59q-47 -14 -47 -66z" />
<glyph unicode="&#xe4;" horiz-adv-x="980" d="M55 283q0 64 32.5 111t86.5 59l393 92l2 47q0 88 -45.5 136t-128.5 48q-54 0 -113.5 -24t-92.5 -48l-33 -24l-19 10l-37 123q31 18 80.5 44t152 70t146.5 44q173 0 257.5 -77.5t84.5 -203.5q0 -32 -20.5 -202t-20.5 -218q0 -37 20 -59.5t54 -22.5q22 0 46 9t37 17l13 9 l33 -43q-4 -7 -11.5 -19t-30 -44t-45 -58t-54 -51t-58.5 -33q-92 0 -144.5 40.5t-61.5 117.5l-17 6q-155 -155 -225 -155q-120 0 -200.5 85.5t-80.5 213.5zM152 1278q0 62 38 100.5t99 38.5q58 0 90.5 -34.5t32.5 -90.5q0 -60 -38.5 -98.5t-101.5 -38.5q-57 0 -88.5 34 t-31.5 89zM301 307q0 -55 31.5 -90t81.5 -35q66 0 145 58l4 192l-215 -59q-47 -14 -47 -66zM516 1278q0 62 38 100.5t101 38.5q57 0 89 -34t32 -91q0 -60 -38 -98.5t-99 -38.5q-59 0 -91 34t-32 89z" />
<glyph unicode="&#xe5;" horiz-adv-x="980" d="M55 283q0 64 32.5 111t86.5 59l393 92l2 47q0 88 -45.5 136t-128.5 48q-54 0 -113.5 -24t-92.5 -48l-33 -24l-19 10l-37 123q31 18 80.5 44t152 70t146.5 44q173 0 257.5 -77.5t84.5 -203.5q0 -32 -20.5 -202t-20.5 -218q0 -37 20 -59.5t54 -22.5q22 0 46 9t37 17l13 9 l33 -43q-4 -7 -11.5 -19t-30 -44t-45 -58t-54 -51t-58.5 -33q-92 0 -144.5 40.5t-61.5 117.5l-17 6q-155 -155 -225 -155q-120 0 -200.5 85.5t-80.5 213.5zM279 1300q0 85 54 140t142 55q93 0 137.5 -51t44.5 -125q0 -84 -53.5 -144.5t-144.5 -60.5q-86 0 -133 50.5 t-47 135.5zM301 307q0 -55 31.5 -90t81.5 -35q66 0 145 58l4 192l-215 -59q-47 -14 -47 -66zM381 1311q0 -45 28.5 -66.5t63.5 -21.5q82 0 82 75q0 39 -24.5 61.5t-69.5 22.5q-39 0 -59.5 -19t-20.5 -52z" />
<glyph unicode="&#xe6;" horiz-adv-x="1372" d="M37 279q0 68 36.5 117t96.5 61l371 78l2 63q0 86 -45 133t-127 47q-54 0 -115 -24.5t-95 -49.5l-34 -24l-18 10l-37 123q32 18 81.5 44t152 70t145.5 44q172 0 254 -133q121 133 307 133q148 0 231.5 -91.5t83.5 -252.5l-4 -60l-20 -24l-525 -90q14 -136 81.5 -208.5 t182.5 -72.5q56 0 117.5 16.5t94.5 33.5l34 16l17 -7l32 -104q-8 -6 -22.5 -16.5t-56 -36.5t-81 -46t-90.5 -36.5t-90 -16.5q-135 0 -236 52t-155 149q-87 -83 -163.5 -133.5t-123.5 -58.5q-120 0 -201 84.5t-81 210.5zM281 301q0 -53 31.5 -88t78.5 -35q71 0 176 84 q-26 76 -26 164l-201 -53q-59 -11 -59 -72zM772 561l262 66q35 9 35 30q0 63 -32.5 102.5t-84.5 39.5q-83 0 -130.5 -54t-49.5 -147v-37z" />
<glyph unicode="&#xe7;" horiz-adv-x="884" d="M51 449q0 229 140 375.5t360 146.5q68 0 133 -10.5t96 -21.5l31 -11l8 -19q-35 -145 -45 -317l-133 -8v67q0 71 -33 108.5t-94 37.5q-93 0 -141.5 -69.5t-48.5 -201.5q0 -167 57.5 -255.5t165.5 -88.5q50 0 104.5 15t83.5 30l29 15l16 -6l33 -107q-17 -14 -45.5 -35 t-100 -62t-124.5 -52l-21 -70q40 -23 65.5 -39.5t60.5 -44t53 -56.5t18 -59q0 -80 -83.5 -138t-189.5 -58q-58 0 -108.5 24.5t-50.5 63.5t75 129h19q1 -56 30 -85.5t76 -29.5q36 0 59 17t23 44q0 54 -176 146l43 156q-182 20 -283.5 144t-101.5 325z" />
<glyph unicode="&#xe8;" horiz-adv-x="948" d="M51 449q0 223 139 372.5t349 149.5q344 0 344 -353q0 -26 -3.5 -55t-7.5 -45l-4 -16l-24 -23h-527v-18q6 -136 73.5 -210.5t182.5 -74.5q57 0 118.5 15.5t94.5 30.5l33 16l17 -7l32 -104q-8 -6 -22.5 -16.5t-57.5 -36.5t-84 -46t-93.5 -36.5t-94.5 -16.5 q-216 0 -340.5 127t-124.5 347zM233 1362l111 143l27 2q176 -184 344 -348l-62 -80l-30 -8q-84 63 -181 128.5t-152 99.5l-54 34zM317 594l275 14q24 3 31.5 12t7.5 35q0 152 -129 152q-79 0 -127.5 -55t-57.5 -158z" />
<glyph unicode="&#xe9;" horiz-adv-x="948" d="M51 449q0 223 139 372.5t349 149.5q344 0 344 -353q0 -26 -3.5 -55t-7.5 -45l-4 -16l-24 -23h-527v-18q6 -136 73.5 -210.5t182.5 -74.5q57 0 118.5 15.5t94.5 30.5l33 16l17 -7l32 -104q-8 -6 -22.5 -16.5t-57.5 -36.5t-84 -46t-93.5 -36.5t-94.5 -16.5 q-216 0 -340.5 127t-124.5 347zM317 594l275 14q24 3 31.5 12t7.5 35q0 152 -129 152q-79 0 -127.5 -55t-57.5 -158zM340 1159q75 73 160.5 160.5t133.5 138.5l48 51l29 -2l110 -143l-2 -29q-197 -123 -387 -264l-31 8z" />
<glyph unicode="&#xea;" horiz-adv-x="948" d="M51 449q0 223 139 372.5t349 149.5q344 0 344 -353q0 -26 -3.5 -55t-7.5 -45l-4 -16l-24 -23h-527v-18q6 -136 73.5 -210.5t182.5 -74.5q57 0 118.5 15.5t94.5 30.5l33 16l17 -7l32 -104q-8 -6 -22.5 -16.5t-57.5 -36.5t-84 -46t-93.5 -36.5t-94.5 -16.5 q-216 0 -340.5 127t-124.5 347zM182 1180q64 62 142 140.5t124 126.5l46 48h41q164 -176 309 -315l-60 -84l-30 -9q-39 31 -84 63t-95 66t-61 41q-156 -101 -240 -170l-32 9zM317 594l275 14q24 3 31.5 12t7.5 35q0 152 -129 152q-79 0 -127.5 -55t-57.5 -158z" />
<glyph unicode="&#xeb;" horiz-adv-x="948" d="M51 449q0 223 139 372.5t349 149.5q344 0 344 -353q0 -26 -3.5 -55t-7.5 -45l-4 -16l-24 -23h-527v-18q6 -136 73.5 -210.5t182.5 -74.5q57 0 118.5 15.5t94.5 30.5l33 16l17 -7l32 -104q-8 -6 -22.5 -16.5t-57.5 -36.5t-84 -46t-93.5 -36.5t-94.5 -16.5 q-216 0 -340.5 127t-124.5 347zM197 1276q0 62 38 100.5t99 38.5q58 0 90.5 -34.5t32.5 -90.5q0 -60 -38.5 -98.5t-101.5 -38.5q-57 0 -88.5 34t-31.5 89zM317 594l275 14q24 3 31.5 12t7.5 35q0 152 -129 152q-79 0 -127.5 -55t-57.5 -158zM561 1276q0 62 38 100.5 t101 38.5q57 0 89 -34t32 -91q0 -60 -38 -98.5t-99 -38.5q-59 0 -91 34t-32 89z" />
<glyph unicode="&#xec;" horiz-adv-x="600" d="M23 1362l110 143l27 2q176 -184 344 -348l-62 -80l-30 -8q-84 63 -181 128.5t-151 99.5l-55 34zM51 782l12 121q84 11 182.5 28t154.5 29l57 11l18 -35q-22 -44 -35.5 -244.5t-13.5 -474.5q0 -49 14.5 -69.5t48.5 -20.5l60 4l4 -8l-21 -129q-141 6 -227 6q-45 0 -108 -6 t-103 -12l-41 -5l17 132q61 10 88.5 40.5t27.5 86.5v438q0 64 -19 89t-69 25z" />
<glyph unicode="&#xed;" horiz-adv-x="600" d="M51 782l12 121q84 11 182.5 28t154.5 29l57 11l18 -35q-22 -44 -35.5 -244.5t-13.5 -474.5q0 -49 14.5 -69.5t48.5 -20.5l60 4l4 -8l-21 -129q-141 6 -227 6q-45 0 -108 -6t-103 -12l-41 -5l17 132q61 10 88.5 40.5t27.5 86.5v438q0 64 -19 89t-69 25zM137 1159 q75 73 160.5 160.5t133.5 138.5l48 51l29 -2l110 -143l-2 -29q-197 -123 -387 -264l-30 8z" />
<glyph unicode="&#xee;" horiz-adv-x="600" d="M-16 1178q64 62 142 140.5t124 126.5l45 48h41q164 -176 309 -315l-59 -84l-31 -9q-39 31 -84 63t-95 66t-61 41q-151 -98 -239 -170l-33 9zM51 782l12 121q84 11 182.5 28t154.5 29l57 11l18 -35q-22 -44 -35.5 -244.5t-13.5 -474.5q0 -49 14.5 -69.5t48.5 -20.5l60 4 l4 -8l-21 -129q-141 6 -227 6q-45 0 -108 -6t-103 -12l-41 -5l17 132q61 10 88.5 40.5t27.5 86.5v438q0 64 -19 89t-69 25z" />
<glyph unicode="&#xef;" horiz-adv-x="600" d="M-4 1276q0 62 38 100.5t99 38.5q58 0 90.5 -34.5t32.5 -90.5q0 -60 -38 -98.5t-101 -38.5q-57 0 -89 34t-32 89zM51 782l12 121q84 11 182.5 28t154.5 29l57 11l18 -35q-22 -44 -35.5 -244.5t-13.5 -474.5q0 -49 14.5 -69.5t48.5 -20.5l60 4l4 -8l-21 -129q-141 6 -227 6 q-45 0 -108 -6t-103 -12l-41 -5l17 132q61 10 88.5 40.5t27.5 86.5v438q0 64 -19 89t-69 25zM360 1276q0 62 38.5 100.5t101.5 38.5q57 0 89 -34t32 -91q0 -60 -38.5 -98.5t-99.5 -38.5q-59 0 -91 34t-32 89z" />
<glyph unicode="&#xf0;" horiz-adv-x="1040" d="M59 430q0 219 120.5 368.5t295.5 149.5q32 -5 119 -49l6 10q-62 124 -158 217l-264 -131l-18 6l-35 125l203 101q-111 91 -252 166l65 114l27 11q195 -83 346 -195l289 143l18 -10l35 -121l-219 -108q167 -153 255.5 -335.5t88.5 -379.5q0 -240 -133 -388.5t-348 -148.5 q-203 0 -322 123t-119 332zM332 477q0 -169 55.5 -256.5t157.5 -87.5q77 0 118.5 72.5t41.5 212.5q0 158 -31 297q-62 53 -160 53q-95 0 -138.5 -67t-43.5 -224z" />
<glyph unicode="&#xf1;" horiz-adv-x="1167" d="M49 795l12 108q83 13 178 30t149 27l54 11l17 -21q-19 -71 -23 -141l8 -8q69 60 149 115t116 55q146 0 227.5 -70t81.5 -196q0 -37 -18.5 -233t-18.5 -249t14 -74.5t49 -21.5l62 2l4 -8l-18 -127q-146 6 -224 6q-36 0 -93 -4t-97 -8l-39 -4l12 129q50 12 71.5 37.5 t22.5 76.5l7 351q0 178 -131 178q-71 0 -177 -76q-20 -375 -20 -459q0 -52 13.5 -72t47.5 -20l54 4l6 -10l-23 -129q-135 6 -217 6q-47 0 -108 -3t-99 -6l-37 -3l17 131q59 6 82.5 30.5t23.5 81.5v431q0 71 -21 96.5t-79 25.5h-27zM240 1178v22l161 207l33 8 q36 0 157.5 -33.5t149.5 -33.5q21 0 54 28.5t56 57.5l23 28h23l80 -76v-20l-160 -209l-35 -8q-35 0 -156 35t-149 35q-23 0 -56 -28.5t-55 -57.5l-22 -29h-22z" />
<glyph unicode="&#xf2;" horiz-adv-x="1030" d="M51 444q0 235 137.5 381t358.5 146q200 0 316 -126t116 -343q0 -235 -136.5 -381t-357.5 -146q-196 0 -315 128.5t-119 340.5zM250 1362l110 143l27 2q176 -184 344 -348l-61 -80l-31 -8q-84 63 -181 128.5t-152 99.5l-54 34zM324 520q0 -193 52 -290t150 -97 q176 0 176 275q0 193 -52 290t-150 97q-176 0 -176 -275z" />
<glyph unicode="&#xf3;" horiz-adv-x="1030" d="M51 444q0 235 137.5 381t358.5 146q200 0 316 -126t116 -343q0 -235 -136.5 -381t-357.5 -146q-196 0 -315 128.5t-119 340.5zM324 520q0 -193 52 -290t150 -97q176 0 176 275q0 193 -52 290t-150 97q-176 0 -176 -275zM358 1159q75 73 160.5 160.5t133.5 138.5l48 51 l29 -2l111 -143l-2 -29q-197 -123 -387 -264l-31 8z" />
<glyph unicode="&#xf4;" horiz-adv-x="1030" d="M51 444q0 235 137.5 381t358.5 146q200 0 316 -126t116 -343q0 -235 -136.5 -381t-357.5 -146q-196 0 -315 128.5t-119 340.5zM201 1180q64 62 142 140.5t123 126.5l46 48h41q164 -176 309 -315l-59 -84l-31 -9q-39 31 -84 63t-95 66t-61 41q-151 -98 -239 -170l-33 9z M324 520q0 -193 52 -290t150 -97q176 0 176 275q0 193 -52 290t-150 97q-176 0 -176 -275z" />
<glyph unicode="&#xf5;" horiz-adv-x="1030" d="M51 444q0 235 137.5 381t358.5 146q200 0 316 -126t116 -343q0 -235 -136.5 -381t-357.5 -146q-196 0 -315 128.5t-119 340.5zM156 1178v22l161 207l33 8q36 0 157.5 -33.5t149.5 -33.5q21 0 54.5 28.5t56.5 57.5l23 28h22l80 -76v-20l-160 -209l-35 -8q-35 0 -156 35 t-149 35q-23 0 -56 -28.5t-55 -57.5l-22 -29h-22zM324 520q0 -193 52 -290t150 -97q176 0 176 275q0 193 -52 290t-150 97q-176 0 -176 -275z" />
<glyph unicode="&#xf6;" horiz-adv-x="1030" d="M51 444q0 235 137.5 381t358.5 146q200 0 316 -126t116 -343q0 -235 -136.5 -381t-357.5 -146q-196 0 -315 128.5t-119 340.5zM215 1276q0 62 38 100.5t99 38.5q58 0 90.5 -34.5t32.5 -90.5q0 -60 -38.5 -98.5t-100.5 -38.5q-57 0 -89 34t-32 89zM324 520q0 -193 52 -290 t150 -97q176 0 176 275q0 193 -52 290t-150 97q-176 0 -176 -275zM580 1276q0 62 38 100.5t101 38.5q57 0 89 -34t32 -91q0 -60 -38.5 -98.5t-99.5 -38.5q-58 0 -90 33.5t-32 89.5z" />
<glyph unicode="&#xf7;" horiz-adv-x="1036" d="M35 444l28 185q298 -2 480 -2q73 0 184 3t185 6l75 3l14 -25l-20 -188l-465 -2l-467 -2zM362 154q0 69 42 112t112 43q65 0 102 -38.5t37 -102.5q0 -68 -41.5 -111t-111.5 -43q-67 0 -103.5 39t-36.5 101zM362 881q0 69 42 112t112 43q65 0 102 -38.5t37 -102.5 q0 -68 -41.5 -111t-111.5 -43q-67 0 -103.5 39t-36.5 101z" />
<glyph unicode="&#xf8;" horiz-adv-x="1030" d="M49 -160l146 240q-144 128 -144 364q0 235 137.5 381t358.5 146q71 0 155 -25l138 225l125 -61l6 -25l-133 -217q141 -128 141 -366q0 -235 -136.5 -381t-357.5 -146q-78 0 -161 27l-148 -242l-121 60zM324 520q0 -112 18 -192l254 436q-45 31 -96 31q-176 0 -176 -275z M424 168q41 -35 102 -35q176 0 176 275q0 122 -20 198z" />
<glyph unicode="&#xf9;" horiz-adv-x="1120" d="M31 782l12 121q77 11 171 28t149 29l55 11l20 -35q-23 -50 -39 -222t-16 -356q0 -85 31 -125t96 -40q27 0 61 13t56 26t57 36v418q0 59 -17.5 78.5t-70.5 21.5q-6 0 -20 -1l-15 -1l17 119q79 11 175 27t152 26l56 11l20 -35q-23 -47 -39 -238t-16 -422q0 -39 19 -61.5 t52 -22.5q22 0 46 9t37 17l14 9l32 -43q-5 -7 -13 -19.5t-33.5 -45t-50 -58.5t-57.5 -50.5t-61 -31.5q-188 0 -209 158l-16 8q-78 -73 -141 -118.5t-86 -45.5q-157 0 -239.5 66.5t-82.5 192.5l15 452q0 52 -16.5 76t-51.5 24zM264 1362l111 143l26 2q176 -184 344 -348 l-61 -80l-31 -8q-84 63 -181 128.5t-152 99.5l-54 34z" />
<glyph unicode="&#xfa;" horiz-adv-x="1120" d="M31 782l12 121q77 11 171 28t149 29l55 11l20 -35q-23 -50 -39 -222t-16 -356q0 -85 31 -125t96 -40q27 0 61 13t56 26t57 36v418q0 59 -17.5 78.5t-70.5 21.5q-6 0 -20 -1l-15 -1l17 119q79 11 175 27t152 26l56 11l20 -35q-23 -47 -39 -238t-16 -422q0 -39 19 -61.5 t52 -22.5q22 0 46 9t37 17l14 9l32 -43q-5 -7 -13 -19.5t-33.5 -45t-50 -58.5t-57.5 -50.5t-61 -31.5q-188 0 -209 158l-16 8q-78 -73 -141 -118.5t-86 -45.5q-157 0 -239.5 66.5t-82.5 192.5l15 452q0 52 -16.5 76t-51.5 24zM371 1159q75 73 160.5 160.5t133.5 138.5l48 51 l28 -2l111 -143l-2 -29q-197 -123 -387 -264l-31 8z" />
<glyph unicode="&#xfb;" horiz-adv-x="1120" d="M31 782l12 121q77 11 171 28t149 29l55 11l20 -35q-23 -50 -39 -222t-16 -356q0 -85 31 -125t96 -40q27 0 61 13t56 26t57 36v418q0 59 -17.5 78.5t-70.5 21.5q-6 0 -20 -1l-15 -1l17 119q79 11 175 27t152 26l56 11l20 -35q-23 -47 -39 -238t-16 -422q0 -39 19 -61.5 t52 -22.5q22 0 46 9t37 17l14 9l32 -43q-5 -7 -13 -19.5t-33.5 -45t-50 -58.5t-57.5 -50.5t-61 -31.5q-188 0 -209 158l-16 8q-78 -73 -141 -118.5t-86 -45.5q-157 0 -239.5 66.5t-82.5 192.5l15 452q0 52 -16.5 76t-51.5 24zM213 1180q64 62 142 140.5t123 126.5l46 48h41 q164 -176 309 -315l-59 -84l-31 -9q-39 31 -83 62.5t-95.5 66.5t-60.5 41q-156 -101 -240 -170l-33 9z" />
<glyph unicode="&#xfc;" horiz-adv-x="1120" d="M31 782l12 121q77 11 171 28t149 29l55 11l20 -35q-23 -50 -39 -222t-16 -356q0 -85 31 -125t96 -40q27 0 61 13t56 26t57 36v418q0 59 -17.5 78.5t-70.5 21.5q-6 0 -20 -1l-15 -1l17 119q79 11 175 27t152 26l56 11l20 -35q-23 -47 -39 -238t-16 -422q0 -39 19 -61.5 t52 -22.5q22 0 46 9t37 17l14 9l32 -43q-5 -7 -13 -19.5t-33.5 -45t-50 -58.5t-57.5 -50.5t-61 -31.5q-188 0 -209 158l-16 8q-78 -73 -141 -118.5t-86 -45.5q-157 0 -239.5 66.5t-82.5 192.5l15 452q0 52 -16.5 76t-51.5 24zM227 1276q0 62 38.5 100.5t99.5 38.5 q57 0 89.5 -34t32.5 -91q0 -60 -38.5 -98.5t-100.5 -38.5q-57 0 -89 34t-32 89zM592 1276q0 62 38 100.5t101 38.5q57 0 89 -34t32 -91q0 -60 -38 -98.5t-99 -38.5q-59 0 -91 34t-32 89z" />
<glyph unicode="&#xfd;" horiz-adv-x="952" d="M-47 -328l16 27q131 10 237.5 84t174.5 199q-190 535 -283 749q-25 47 -52.5 66.5t-70.5 21.5l-4 10l15 117h159q63 0 140.5 3.5t125.5 7t48 4.5l4 -11l-19 -121q-58 -3 -78 -13.5t-20 -35.5q0 -29 35 -156.5t69 -240.5l35 -113h23q184 473 184 510q0 25 -12.5 34 t-46.5 9h-66l-6 11l17 118q125 -6 217 -6h190l-16 -125q-45 -11 -65.5 -30.5t-39.5 -69.5l-262 -633q-132 -315 -245 -450t-248 -132q-29 0 -92.5 67t-63.5 99zM340 1159q75 73 160.5 160.5t133.5 138.5l48 51l29 -2l110 -143l-2 -29q-197 -123 -387 -264l-31 8z" />
<glyph unicode="&#xfe;" horiz-adv-x="1050" d="M0 1360l8 94q84 11 189.5 27.5t168.5 27.5l64 11l14 -39q-37 -46 -53 -650q155 113 205 127q43 7 59 3q161 -14 253.5 -133.5t92.5 -315.5q0 -232 -145 -382t-371 -150q-63 0 -106 6q0 -25 -0.5 -61t-0.5 -58v-51t1.5 -46.5t5 -38t9 -32.5t14 -23t20.5 -15.5t27 -4.5 l90 4l6 -8l-23 -127q-6 0 -95.5 2t-129.5 2q-58 0 -130.5 -2.5t-118.5 -5.5t-46 -4l19 127q69 7 85.5 36t18.5 121l8 353v1069q0 65 -18.5 89.5t-67.5 24.5q-11 0 -29.5 -2t-21.5 -2q-2 8 -2 27zM381 180q67 -30 149 -30q97 0 151 74t54 210q0 153 -54 243.5t-144 90.5 q-33 0 -76 -19t-76 -49z" />
<glyph unicode="&#xff;" horiz-adv-x="952" d="M-47 -328l16 27q131 10 237.5 84t174.5 199q-190 535 -283 749q-25 47 -52.5 66.5t-70.5 21.5l-4 10l15 117h159q63 0 140.5 3.5t125.5 7t48 4.5l4 -11l-19 -121q-58 -3 -78 -13.5t-20 -35.5q0 -29 35 -156.5t69 -240.5l35 -113h23q184 473 184 510q0 25 -12.5 34 t-46.5 9h-66l-6 11l17 118q125 -6 217 -6h190l-16 -125q-45 -11 -65.5 -30.5t-39.5 -69.5l-262 -633q-132 -315 -245 -450t-248 -132q-29 0 -92.5 67t-63.5 99zM197 1276q0 62 38 100.5t99 38.5q58 0 90.5 -34.5t32.5 -90.5q0 -60 -38.5 -98.5t-101.5 -38.5q-57 0 -88.5 34 t-31.5 89zM561 1276q0 62 38 100.5t101 38.5q57 0 89 -34t32 -91q0 -60 -38 -98.5t-99 -38.5q-59 0 -91 34t-32 89z" />
<glyph unicode="&#x152;" horiz-adv-x="1925" d="M59 623q0 323 179.5 514.5t480.5 191.5q62 0 213 -13t244 -13q377 0 639 36l16 -22q-37 -183 -47 -373l-187 -12q5 53 5 82q0 36 -6 57t-19.5 37t-46 22.5t-75 9.5t-116.5 3q-51 0 -71 -5t-27 -17.5t-8 -45.5l-14 -317l190 -2q30 0 89.5 4t103.5 8l45 4l16 -18l-29 -176 q-164 6 -266 6l-158 -13l-4 -286q0 -82 21.5 -102.5t109.5 -20.5q68 0 110.5 2.5t79 12.5t56 24.5t35.5 42.5t24 62t15 89l174 15l14 -21q-37 -184 -55 -381l-21 -22q-391 18 -643 18q-99 0 -261.5 -13.5t-221.5 -13.5q-269 0 -426.5 173.5t-157.5 472.5zM373 707 q0 -273 82 -415t235 -142q137 0 198 61t62 203l2 516q0 126 -60 172.5t-214 46.5q-144 0 -224.5 -115t-80.5 -327z" />
<glyph unicode="&#x153;" horiz-adv-x="1579" d="M51 444q0 235 136 381t354 146q100 0 186.5 -51t118.5 -105q43 56 137 106t186 50q176 0 261.5 -90.5t85.5 -249.5q0 -32 -5 -64t-9 -49l-5 -16l-24 -23h-525v-20q9 -135 75.5 -209t180.5 -74q57 0 118.5 15.5t94.5 30.5l33 16l16 -7l33 -104q-8 -6 -22.5 -16.5 t-57.5 -36.5t-84 -46t-93.5 -36.5t-94.5 -16.5q-109 0 -202.5 48.5t-133.5 107.5q-40 -53 -134.5 -104.5t-197.5 -51.5q-194 0 -311 128.5t-117 340.5zM324 520q0 -193 50.5 -290t145.5 -97q170 0 170 275q0 193 -50.5 290t-145.5 97q-170 0 -170 -275zM948 592l275 16 q23 1 31 11t8 36q0 152 -129 152q-80 0 -128 -55t-57 -160z" />
<glyph unicode="&#x178;" horiz-adv-x="1224" d="M-20 1188l16 131q182 -6 264 -6q46 0 128 4t141 8l59 4l10 -18l-10 -119q-68 -3 -95.5 -17t-27.5 -45q0 -21 37.5 -112t85.5 -196t51 -113h20l162 338q29 60 29 98q0 22 -25 33t-80 14l-4 10l15 119q21 0 121.5 -4t150.5 -4q42 0 94 2t84 4l31 2l8 -14l-14 -125 q-81 -26 -129.5 -80t-118.5 -182l-197 -367q-6 -11 -10 -22.5t-7.5 -20.5t-6 -23t-4.5 -22t-3 -25.5t-2 -26t-1.5 -30.5t-0.5 -32.5t-0.5 -39t-0.5 -41.5q-2 -75 18.5 -104t77.5 -29l102 6l6 -10l-18 -141q-236 8 -338 8q-52 0 -132 -6t-134 -12l-53 -5l14 142 q118 15 151 51t33 141v62q0 54 -12.5 98.5t-46.5 110.5l-201 391q-49 99 -95 142.5t-136 62.5zM348 1571q0 60 38 98.5t99 38.5q57 0 90 -34t33 -89q0 -62 -38 -100.5t-101 -38.5q-57 0 -89 34t-32 91zM713 1571q0 61 38.5 99t100.5 38q57 0 89 -34t32 -89q0 -62 -38 -100.5 t-99 -38.5q-59 0 -91 34t-32 91z" />
<glyph unicode="&#x2c6;" horiz-adv-x="815" d="M76 1180q64 62 142 140.5t124 126.5l45 48h41q164 -176 309 -315l-59 -84l-31 -9q-39 31 -83 62.5t-95.5 66.5t-60.5 41q-156 -101 -240 -170l-33 9z" />
<glyph unicode="&#x2dc;" horiz-adv-x="815" d="M39 1178v22l162 207l32 8q36 0 158 -33.5t150 -33.5q21 0 54 28.5t56 57.5l23 28h22l80 -76v-20l-160 -209l-34 -8q-35 0 -156.5 35t-149.5 35q-23 0 -56 -28.5t-55 -57.5l-22 -29h-22z" />
<glyph unicode="&#x2000;" horiz-adv-x="897" />
<glyph unicode="&#x2001;" horiz-adv-x="1794" />
<glyph unicode="&#x2002;" horiz-adv-x="897" />
<glyph unicode="&#x2003;" horiz-adv-x="1794" />
<glyph unicode="&#x2004;" horiz-adv-x="598" />
<glyph unicode="&#x2005;" horiz-adv-x="448" />
<glyph unicode="&#x2006;" horiz-adv-x="299" />
<glyph unicode="&#x2007;" horiz-adv-x="299" />
<glyph unicode="&#x2008;" horiz-adv-x="224" />
<glyph unicode="&#x2009;" horiz-adv-x="358" />
<glyph unicode="&#x200a;" horiz-adv-x="99" />
<glyph unicode="&#x2010;" horiz-adv-x="663" d="M72 422l14 160l336 39l151 20l19 -27l-17 -163l-485 -54z" />
<glyph unicode="&#x2011;" horiz-adv-x="663" d="M72 422l14 160l336 39l151 20l19 -27l-17 -163l-485 -54z" />
<glyph unicode="&#x2012;" horiz-adv-x="663" d="M72 422l14 160l336 39l151 20l19 -27l-17 -163l-485 -54z" />
<glyph unicode="&#x2013;" horiz-adv-x="927" d="M-18 461l22 155h494q178 0 266 2q168 3 168 7l16 -31l-22 -158q-175 0 -512 -1t-414 -1z" />
<glyph unicode="&#x2014;" horiz-adv-x="1794" d="M-18 461l22 155h899q234 0 547 3t346 6l16 -31l-22 -158q-340 0 -991.5 -1t-798.5 -1z" />
<glyph unicode="&#x2018;" horiz-adv-x="446" d="M57 967q0 102 85 200t216 172l76 -61v-35q-62 -42 -100.5 -99.5t-38.5 -111.5q0 -80 70 -139l-5 -29q-89 -71 -161 -71q-62 0 -102 47.5t-40 126.5z" />
<glyph unicode="&#x2019;" horiz-adv-x="446" d="M12 854v35q61 41 100.5 98.5t39.5 110.5q0 40 -20 77.5t-52 63.5l6 29q90 71 162 71q62 0 101.5 -47.5t39.5 -128.5q0 -103 -85.5 -200.5t-215.5 -169.5z" />
<glyph unicode="&#x201a;" horiz-adv-x="487" d="M8 -190q66 45 107 108.5t41 124.5q0 82 -64 150l6 28q93 70 162 70q61 0 99 -48.5t38 -133.5q0 -107 -89.5 -213.5t-223.5 -182.5l-76 62v35z" />
<glyph unicode="&#x201c;" horiz-adv-x="823" d="M57 967q0 102 85 200t216 172l76 -61v-35q-62 -42 -100.5 -99.5t-38.5 -111.5q0 -80 70 -139l-5 -29q-89 -71 -161 -71q-62 0 -102 47.5t-40 126.5zM434 967q0 102 85 200t216 172l76 -61v-35q-62 -42 -100.5 -99.5t-38.5 -111.5q0 -81 69 -139l-4 -29q-89 -71 -162 -71 q-62 0 -101.5 47.5t-39.5 126.5z" />
<glyph unicode="&#x201d;" horiz-adv-x="823" d="M12 854v35q61 41 100.5 98.5t39.5 110.5q0 40 -20 77.5t-52 63.5l6 29q90 71 162 71q62 0 101.5 -47.5t39.5 -128.5q0 -103 -85.5 -200.5t-215.5 -169.5zM389 854v35q61 40 100 98t39 111q0 40 -19.5 77.5t-51.5 63.5l6 29q90 71 162 71q62 0 101.5 -47.5t39.5 -128.5 q0 -103 -85.5 -200.5t-215.5 -169.5z" />
<glyph unicode="&#x201e;" horiz-adv-x="862" d="M25 -160q62 42 100.5 99.5t38.5 111.5q0 40 -19.5 78t-50.5 64l4 28q93 70 162 70q62 0 101.5 -47.5t39.5 -126.5q0 -103 -85 -201.5t-216 -171.5l-75 61v35zM395 -160q62 42 101 100t39 111q0 40 -19.5 78t-50.5 64l4 28q93 70 162 70q62 0 101.5 -47.5t39.5 -126.5 q0 -102 -85 -201t-216 -172l-76 61v35z" />
<glyph unicode="&#x2022;" horiz-adv-x="696" d="M102 471q0 113 69.5 184.5t182.5 71.5q111 0 175.5 -66.5t64.5 -173.5q0 -113 -69.5 -184.5t-182.5 -71.5t-176.5 66t-63.5 174z" />
<glyph unicode="&#x2026;" horiz-adv-x="1386" d="M84 133q0 74 45 121t121 47q72 0 112.5 -42t40.5 -112q0 -76 -44.5 -123t-120.5 -47q-75 0 -114.5 42.5t-39.5 113.5zM535 133q0 75 45 121.5t120 46.5q72 0 113 -42t41 -112q0 -76 -45 -123t-121 -47q-74 0 -113.5 42.5t-39.5 113.5zM983 133q0 74 45 121t121 47 q72 0 113 -42t41 -112q0 -76 -45 -123t-121 -47q-75 0 -114.5 42.5t-39.5 113.5z" />
<glyph unicode="&#x202f;" horiz-adv-x="358" />
<glyph unicode="&#x2039;" horiz-adv-x="542" d="M31 440v43q188 189 338 359l84 -51l8 -33q-38 -56 -101 -158.5t-81 -130.5q178 -289 182 -295l-8 -33l-84 -51q-67 74 -151.5 161.5t-135.5 138.5z" />
<glyph unicode="&#x203a;" horiz-adv-x="542" d="M84 174q82 127 180 289q-122 201 -180 293l8 32l84 54q65 -74 149 -162t135 -140l52 -51v-40q-189 -189 -336 -359l-84 51z" />
<glyph unicode="&#x205f;" horiz-adv-x="448" />
<glyph unicode="&#x20ac;" horiz-adv-x="1173" d="M10 352l15 97h139v36q0 28 4 86h-143l-15 15l15 96h168q54 170 201.5 265t361.5 95q64 0 144.5 -9.5t129.5 -18.5l49 -10l13 -23q-36 -133 -48 -305l-170 -10q3 41 3 84q0 68 -44 99.5t-137 31.5q-201 0 -247 -199l309 8l14 -18l-8 -99l-330 -2v-30q0 -34 4 -92h8l312 8 l14 -19l-8 -98l-303 -2q63 -199 248 -199q90 0 139.5 51t69.5 166l172 13q-29 -169 -35 -306l-17 -18q-18 -7 -50.5 -17.5t-130 -28t-191.5 -17.5q-194 0 -321 93.5t-165 262.5h-155z" />
<glyph unicode="&#x2122;" horiz-adv-x="1163" d="M2 1126q6 105 8 189l8 8l93 -8h256l94 8l10 -8l6 -182l-90 -7q-8 72 -19.5 90t-54.5 19q-6 -222 -6 -293q0 -29 10 -41t33 -12l43 2l4 -4l-8 -66q-111 4 -156 4l-153 -6l6 64q52 4 67 17t15 52v283q-44 -1 -57 -19t-21 -83zM489 819l7 64q23 2 34.5 13.5t12.5 37.5 q3 7 17.5 139t14.5 148q0 20 -8.5 24.5t-46.5 9.5l-8 7l8 57q82 -4 115 -4l113 4q15 -59 33.5 -125.5t30.5 -103.5l11 -37h11q45 135 84 262q108 0 131 2l79 2l5 -2l-7 -60q-34 -2 -45.5 -9t-11.5 -29q0 -89 18 -265q5 -39 13 -52t28 -13h23l4 -4l-6 -62q-51 2 -86 2 q-131 0 -143 -6l8 64q23 3 33 11.5t10 25.5l-8 202h-11q-42 -105 -104 -299l-84 -8q-60 203 -102 307h-11q-8 -193 -8 -209q0 -26 25 -26l24 2l6 -6l-8 -60q-81 2 -108 2z" />
<glyph unicode="&#xe000;" horiz-adv-x="952" d="M0 0v952h952v-952h-952z" />
<glyph unicode="&#xfb01;" horiz-adv-x="1275" d="M49 803l17 106l124 21q0 273 146.5 431.5t408.5 158.5q137 0 271 -60l10 -30q-39 -92 -78 -203l-24 -8q-4 5 -12.5 12.5t-34.5 27t-54 34.5t-69 27.5t-82 12.5q-125 0 -177.5 -72.5t-52.5 -244.5l-2 -90q314 0 428 7.5t265 37.5l16 -35q-20 -44 -33.5 -246.5 t-13.5 -472.5q0 -50 13.5 -70t47.5 -20l60 4l6 -8l-21 -129q-143 6 -227 6q-44 0 -106 -6t-102 -12l-40 -5l15 132q66 12 89 45.5t23 119.5v400q0 72 -22.5 93t-98.5 21h-301q0 -92 -2 -278.5t-2 -278.5q0 -94 82 -94l127 2l6 -8l-18 -137q-207 6 -297 6q-50 0 -118 -3 t-110 -6l-43 -3l15 127q66 8 89 38.5t23 112.5v441q-3 48 -29 64.5t-104 19.5z" />
<glyph unicode="&#xfb02;" horiz-adv-x="1243" d="M49 803l17 106l124 21v16q2 263 140.5 418.5t371.5 155.5q115 0 213 -37l224 37l14 -39q-28 -34 -45.5 -393t-17.5 -871q0 -51 13.5 -71.5t45.5 -20.5l70 4l4 -12l-21 -123q-153 6 -235 6q-45 0 -104 -4.5t-95 -9.5l-37 -4l17 129q56 12 78 38.5t22 81.5v992l-2 37 q-44 33 -101.5 53t-109.5 20q-103 0 -148 -73t-45 -244l-2 -94l262 6l9 -10l-23 -140q-105 4 -250 6l-4 -553q0 -49 20.5 -71.5t63.5 -22.5l125 4l6 -10l-18 -137q-207 6 -297 6q-51 0 -119 -3t-110 -6l-42 -3l15 127q60 7 86 34.5t26 81.5v478q-3 46 -29 62.5t-104 19.5z " />
</font>
</defs>
</svg>
