<?xml version="1.0" standalone="no"?>
<!DOCTYPE svg PUBLIC "-//W3C//DTD SVG 1.1//EN" "http://www.w3.org/Graphics/SVG/1.1/DTD/svg11.dtd" >
<svg xmlns="http://www.w3.org/2000/svg">
<metadata></metadata>
<defs>
<font id="alegreyaregular" horiz-adv-x="1036" >
<font-face units-per-em="2048" ascent="1638" descent="-410" />
<missing-glyph horiz-adv-x="413" />
<glyph horiz-adv-x="2048" />
<glyph horiz-adv-x="2048" />
<glyph unicode="&#xd;" horiz-adv-x="2048" />
<glyph unicode=" "  horiz-adv-x="413" />
<glyph unicode="&#x09;" horiz-adv-x="413" />
<glyph unicode="&#xa0;" horiz-adv-x="413" />
<glyph unicode="!" horiz-adv-x="583" d="M125 92q0 54 35 90.5t92 36.5q55 0 86 -33.5t31 -83.5q0 -54 -35.5 -90.5t-93.5 -36.5q-55 0 -85 34.5t-30 82.5zM201 1364l14 20l170 37l18 -22l-106 -971l-57 -14l-23 16z" />
<glyph unicode="&#x22;" horiz-adv-x="610" d="M121 1300l143 29l15 -16q-29 -225 -72 -434l-51 -29l-23 4q3 117 0.5 216t-7.5 164zM371 1300l143 29l14 -16q-28 -225 -71 -434l-51 -29l-23 4q3 117 0.5 216t-7.5 164z" />
<glyph unicode="#" horiz-adv-x="1019" d="M23 446l30 76l223 -2l27 117l25 106l-224 -2l-6 21l31 76l219 -2l76 327l82 11l16 -13l-80 -327h109l108 -3l76 332l82 11l17 -13l-80 -330h221l8 -18l-39 -74l-213 2l-18 -79l-33 -146h219l8 -18l-39 -74l-209 2l-73 -338l-80 -16l-14 12l75 344l-143 2l-74 -2l-76 -340 l-79 -16l-15 12l76 344l-227 -2zM369 518h106l113 -2l26 121l25 106l-139 2l-78 -2l-21 -81z" />
<glyph unicode="$" horiz-adv-x="940" d="M109 55q22 130 22 277l92 8q0 -149 34 -201.5t136 -58.5l35 358q-19 8 -29 15q-63 31 -101.5 53.5t-83 57.5t-66 77.5t-21.5 93.5q0 121 100 205t256 96l29 303l53 9l13 -19l-29 -291q64 -2 125 -11.5t90 -18.5l29 -9l8 -14q-29 -125 -39 -270l-80 -8l-12 8q4 30 4 73 q0 69 -30.5 102t-104.5 40l-33 -340q2 -2 6 -2q49 -23 63.5 -30t58.5 -30.5t60.5 -36t47 -38t43 -46.5t23.5 -50.5t11 -61.5q0 -127 -102 -212t-268 -99l-27 -293l-53 -6l-11 14l27 283q-71 1 -137.5 14.5t-97.5 27.5l-31 13zM285 791q0 -51 41 -90.5t118 -79.5l29 311 q-82 -3 -135 -42t-53 -99zM459 80q87 6 139.5 48.5t52.5 109.5q0 52 -42 91.5t-120 78.5z" />
<glyph unicode="%" horiz-adv-x="1374" d="M72 987q0 147 87 244.5t222 97.5q133 0 203.5 -90.5t70.5 -214.5q0 -95 -35 -175t-106 -130.5t-166 -50.5q-128 0 -202 89t-74 230zM147 -131q269 408 451 694l524 826l80 -39l10 -29q-356 -531 -536 -819q-82 -132 -192 -306.5t-179 -282.5l-69 -108l-78 39zM168 1016 q0 -108 62.5 -162.5t146.5 -54.5q31 0 60 7.5t58 25.5t46.5 55.5t17.5 89.5q0 94 -57.5 155.5t-155.5 61.5q-82 0 -130 -49.5t-48 -128.5zM766 295q0 147 87 244.5t222 97.5q133 0 204 -90.5t71 -214.5q0 -95 -35 -175t-106.5 -131t-166.5 -51q-128 0 -202 89.5t-74 230.5z M862 324q0 -108 62.5 -163t146.5 -55q31 0 60 8t58 26t46.5 55.5t17.5 89.5q0 94 -57.5 155.5t-155.5 61.5q-82 0 -130 -49.5t-48 -128.5z" />
<glyph unicode="&#x26;" horiz-adv-x="1433" d="M113 328q0 66 28 125.5t67.5 97t79 65.5t67.5 40l28 12v14q-168 177 -168 322q0 139 117 232t291 93q67 0 128.5 -11.5t90.5 -23.5l28 -12l4 -31l-98 -151l-20 -2q-72 66 -115.5 88t-101.5 22q-83 0 -132 -42t-49 -113q0 -101 64 -191t246 -246l327 -282q37 73 37 176 q0 123 -39 182.5t-121 59.5q-24 0 -53 -5t-46 -9l-17 -5l-29 88q43 33 109 37l421 25q105 9 130 12.5t28 9.5l21 -49l-27 -63q-14 -26 -39 -33.5t-104 -7.5h-205l-6 -13q86 -76 86 -200q0 -131 -82 -258l287 -242v-33q-96 -63 -127 -63q-18 0 -261 217 q-86 -86 -194.5 -135.5t-212.5 -49.5q-201 0 -319.5 95t-118.5 258zM266 369q0 -120 93.5 -192.5t248.5 -72.5q175 0 295 105l-461 412q-80 -37 -128 -105.5t-48 -146.5z" />
<glyph unicode="'" horiz-adv-x="360" d="M121 1300l143 29l15 -16q-29 -225 -72 -434l-51 -29l-23 4q3 117 0.5 216t-7.5 164z" />
<glyph unicode="(" horiz-adv-x="632" d="M172 334v354q0 81 13 154t35.5 129.5t51.5 106t60.5 85t63.5 64.5t61 47.5t51.5 31t35.5 18.5l13 5h8l27 -59l-2 -8l-16 -8t-39 -25.5t-56 -46.5t-59 -71.5t-55.5 -98.5t-39.5 -129.5t-16 -163.5v-354q0 -73 10 -140.5t27 -119.5t39 -98.5t46.5 -80.5t48.5 -62t46 -46 t39 -30.5t27 -17.5l10 -6v-10l-43 -53h-8q-8 3 -21.5 9t-53 30t-75.5 54t-79.5 83t-75 114.5t-53 151.5t-21.5 191z" />
<glyph unicode=")" horiz-adv-x="632" d="M31 1266v10l43 53h8q8 -3 21.5 -9t53 -30t75.5 -54t79.5 -83t75 -114.5t53 -151.5t21.5 -191v-354q0 -81 -13 -154t-35.5 -129.5t-51.5 -106t-61 -85t-63.5 -64.5t-60.5 -47.5t-51.5 -31t-35.5 -18.5l-13 -5h-8l-27 59l2 9q6 2 16 7.5t39 26t56 46t59 71t55.5 98.5 t39.5 129.5t16 163.5v355q0 93 -16 176.5t-42 142.5t-57 108.5t-62.5 80.5t-57.5 52.5t-42 30.5z" />
<glyph unicode="*" horiz-adv-x="933" d="M139 1217q1 78 19 139l18 8q113 -59 205 -129l-12 -68l-13 -10q-46 16 -100.5 31t-85.5 22zM186 969q91 89 187 155l59 -32l6 -15q-29 -39 -60 -86t-47 -75l-16 -27q-74 24 -127 61zM397 1485q75 24 138 24l14 -14q-23 -124 -60 -233l-69 -11l-12 9q0 49 -3 105.5 t-5 88.5zM475 1081l49 47l17 2q28 -40 63 -84t56 -68l20 -24q-45 -61 -96 -100l-19 2q-57 114 -90 225zM518 1227l2 16q47 15 100 35t82 32l29 13q46 -64 66 -123l-9 -18q-14 -2 -38 -5t-88 -7.5t-115 -2.5z" />
<glyph unicode="+" d="M37 498l22 100q218 -2 396 -2l2 412l104 16l21 -12q-13 -252 -13 -416q73 0 177.5 3t172.5 6l68 3l12 -20l-16 -105l-414 -2l2 -397l-100 -23l-18 13q2 227 2 407l-406 -2z" />
<glyph unicode="," horiz-adv-x="487" d="M31 -270q71 49 116.5 116t45.5 131q0 82 -66 144l4 29q72 53 119 53q45 0 74.5 -42.5t29.5 -117.5q0 -56 -26.5 -112.5t-71 -103.5t-91 -83t-97.5 -66l-37 31v21z" />
<glyph unicode="-" horiz-adv-x="663" d="M74 446l12 107l356 41l133 18l15 -18l-10 -111l-492 -53z" />
<glyph unicode="." horiz-adv-x="487" d="M123 92q0 54 35 90.5t92 36.5q55 0 86 -33.5t31 -83.5q0 -54 -35.5 -90.5t-93.5 -36.5q-55 0 -85 34.5t-30 82.5z" />
<glyph unicode="/" horiz-adv-x="673" d="M70 -209q108 362 188 672l236 919h94l16 -20q-162 -591 -250 -922l-172 -665h-98z" />
<glyph unicode="0" horiz-adv-x="1091" d="M78 481q0 239 141 396t356 157q194 0 316.5 -138t122.5 -357q0 -245 -140.5 -404.5t-355.5 -159.5q-198 0 -319 139.5t-121 366.5zM193 512q0 -169 100.5 -275t261.5 -106q154 0 249 96.5t95 253.5q0 170 -103 278.5t-264 108.5q-154 0 -246.5 -97.5t-92.5 -258.5z" />
<glyph unicode="1" horiz-adv-x="724" d="M72 881l8 86q121 14 225 30q163 27 204 36q2 1 3 1l12 -35q-40 -34 -55.5 -68t-19.5 -104q-13 -353 -13 -598q0 -82 20.5 -110.5t80.5 -28.5l108 6l4 -8l-18 -94q-173 6 -273 6q-46 0 -110.5 -6t-105.5 -12l-42 -7l13 95q114 9 149 53.5t35 179.5v467q0 72 -26 94.5 t-85 22.5q-19 0 -46 -3.5t-44 -6.5l-18 -3z" />
<glyph unicode="2" horiz-adv-x="972" d="M55 12l162 181q334 379 334 548q0 73 -41 114.5t-113 41.5q-69 0 -137.5 -49.5t-114.5 -132.5h-18l-23 92q51 98 150 162.5t197 64.5q127 0 203.5 -67.5t76.5 -178.5q0 -92 -92 -228t-344 -421l8 -14h313q113 0 156 34.5t74 151.5l82 11q-44 -172 -60 -322l-24 -14 q-482 14 -658 14l-110 -25z" />
<glyph unicode="3" horiz-adv-x="849" d="M41 -66l10 13q90 -19 164 -19q154 0 258.5 78t104.5 195q0 104 -90 155t-277 52l-10 10l-11 71l134 33q82 38 134 105.5t52 134.5q0 64 -45.5 103.5t-114.5 39.5q-58 0 -122.5 -29t-110.5 -75h-21l-20 86q8 6 21 16t53.5 35t79.5 44.5t90 35.5t94 16q120 0 193 -62.5 t73 -166.5q0 -81 -61 -159.5t-164 -131.5v-10q276 -64 276 -254q0 -106 -84.5 -215t-215.5 -179.5t-259 -70.5q-69 0 -99 34.5t-32 114.5z" />
<glyph unicode="4" horiz-adv-x="915" d="M8 182l8 76l566 774q1 0 4 1t4 1l65 -20v-721h191l12 -17l-16 -112q-76 2 -187 6q1 -74 4.5 -160.5t6.5 -135.5l4 -50l-11 -14l-145 -25l-12 18q10 211 12 371q-316 8 -506 8zM166 293h348v459h-18z" />
<glyph unicode="5" horiz-adv-x="880" d="M33 -66l10 13q90 -19 166 -19q163 0 272 76.5t109 196.5q0 101 -94 159t-334 99l-19 22l35 500l17 16l387 17q60 3 86 19t43 61l67 8l-49 -242l-12 -12q-211 16 -449 16l-14 -258q89 -20 157 -41t133.5 -51t107.5 -65t67.5 -82.5t25.5 -104.5q0 -72 -36.5 -145 t-98 -131.5t-136.5 -104.5t-157 -71t-155 -25q-63 0 -94 31.5t-35 117.5z" />
<glyph unicode="6" horiz-adv-x="931" d="M82 403q0 99 23.5 190.5t62.5 162t90 134t107.5 110t113 85.5t107.5 64t90 43t62 26l24 7l14 -11l23 -61q-9 -3 -24.5 -9.5t-61.5 -30t-90 -51.5t-101 -75.5t-103 -100.5t-87.5 -128t-63.5 -156l8 -4q19 12 48.5 30t91 47.5t88.5 29.5q85 0 154.5 -30.5t112 -79.5 t65 -107.5t22.5 -118.5q0 -165 -114.5 -279.5t-292.5 -114.5q-167 0 -268 121.5t-101 306.5zM246 416q0 -157 65.5 -249.5t180.5 -92.5q99 0 157 65t58 180q0 106 -71 185.5t-177 79.5q-59 0 -115 -24.5t-92 -51.5q-6 -46 -6 -92z" />
<glyph unicode="7" horiz-adv-x="860" d="M78 653q29 199 39 355l12 10q123 -8 250 -8h432l45 -58q-203 -408 -459 -991l-51 -176h-14l-123 37l-21 45l512 1003l-354 -14q-53 -2 -84 -11t-52 -33t-31 -55t-21 -91z" />
<glyph unicode="8" horiz-adv-x="993" d="M115 254q0 55 19 105t46.5 85t66.5 66t69 48.5t63 33.5q-108 59 -167.5 127t-59.5 172q0 133 105 233.5t263 100.5q82 0 153 -29.5t119 -93.5t48 -152q0 -56 -19 -106t-51.5 -86t-64.5 -61t-68 -44q55 -30 94 -57.5t76.5 -65t56.5 -85.5t19 -105q0 -152 -120.5 -258.5 t-297.5 -106.5q-146 0 -248 75t-102 204zM264 303q0 -96 72 -168t178 -72q92 0 159.5 63t67.5 155q0 47 -20.5 85.5t-63 70.5t-81 53.5t-100.5 52.5q-8 4 -13.5 6.5t-11.5 5.5q-187 -80 -187 -252zM295 952q0 -30 8 -55.5t29 -49.5t38 -40.5t54.5 -39.5t56 -33.5t65.5 -34.5 q5 -3 9 -5l8 -4q123 74 123 217q0 105 -56.5 164t-144.5 59q-85 0 -137.5 -53t-52.5 -125z" />
<glyph unicode="9" horiz-adv-x="931" d="M74 641q0 165 114.5 279t292.5 114q167 0 268 -121.5t101 -306.5q0 -126 -37.5 -239t-97.5 -193.5t-132.5 -148.5t-145 -111t-132.5 -73.5t-97 -42.5l-38 -13l-14 10l-23 62q9 3 24.5 9.5t61.5 30t90 51t100.5 75t102.5 100t87.5 127.5t62.5 156l-7 6q-19 -12 -48 -30 t-90.5 -47.5t-88.5 -29.5q-85 0 -154.5 30.5t-112 79.5t-65 107.5t-22.5 118.5zM225 690q0 -109 69 -186.5t179 -77.5q98 0 207 76q6 44 6 92q0 155 -66.5 248.5t-179.5 93.5q-99 0 -157 -65.5t-58 -180.5z" />
<glyph unicode=":" horiz-adv-x="487" d="M115 92q0 54 35 90.5t92 36.5q55 0 85.5 -33.5t30.5 -83.5q0 -54 -35.5 -90.5t-93.5 -36.5q-55 0 -84.5 34.5t-29.5 82.5zM115 666q0 54 35 90.5t92 36.5q55 0 85.5 -33.5t30.5 -83.5q0 -54 -35.5 -90.5t-93.5 -36.5q-55 0 -84.5 34.5t-29.5 82.5z" />
<glyph unicode=";" horiz-adv-x="487" d="M31 -270q71 49 116.5 116t45.5 131q0 82 -66 144l4 29q72 53 119 53q45 0 74.5 -42.5t29.5 -117.5q0 -56 -26.5 -112.5t-71 -103.5t-91 -83t-97.5 -66l-37 31v21zM115 666q0 54 35 90.5t92 36.5q55 0 85.5 -33.5t30.5 -83.5q0 -54 -35.5 -90.5t-93.5 -36.5 q-55 0 -84.5 34.5t-29.5 82.5z" />
<glyph unicode="&#x3c;" d="M63 512l5 96l415 176q83 36 186 77.5t165 64.5l61 24l18 -10l15 -102q-230 -80 -398 -150l-315 -123v-12l344 -143l371 -162l2 -23l-62 -82q-217 102 -385 174l-405 172z" />
<glyph unicode="=" d="M37 340l22 100q308 -2 490 -2q73 0 182.5 3t182.5 7l73 3l12 -21l-16 -104l-465 -2l-469 -2zM37 662l22 100q308 -2 490 -2q73 0 182.5 3t182.5 6l73 3l12 -20l-16 -105l-465 -2l-469 -2z" />
<glyph unicode="&#x3e;" d="M104 868l62 82q217 -102 385 -174l405 -172l17 -22l-4 -97l-416 -176q-83 -36 -186 -77.5t-165 -65.5l-61 -23l-18 11l-14 102q229 80 397 150l315 122v13l-344 143l-371 162z" />
<glyph unicode="?" horiz-adv-x="737" d="M119 1305l67 108l29 8q191 -6 325 -103t134 -235q0 -55 -15.5 -103t-37 -80.5t-60.5 -67t-69 -55t-80.5 -53t-77.5 -52.5l-6 -19l43 -194l-6 -17l-125 -34l-19 8l-49 246l6 28l244 156q117 80 117 176q0 120 -111 184.5t-305 75.5zM178 92q0 54 35 90.5t92 36.5 q55 0 86 -33.5t31 -83.5q0 -54 -35.5 -90.5t-93.5 -36.5q-55 0 -85 34.5t-30 82.5z" />
<glyph unicode="@" horiz-adv-x="1703" d="M68 385q0 134 39 261.5t115 237.5t180.5 193t244 130.5t295.5 47.5q151 0 281.5 -49t220.5 -134t141 -201t51 -248q0 -101 -26.5 -195t-81 -176.5t-131.5 -144t-185 -97t-235 -35.5q-74 0 -74 60q0 17 22 123.5t44 204.5l22 98l-12 4q-185 -350 -383 -490 q-81 0 -122.5 75.5t-41.5 203.5q0 126 42.5 253.5t109.5 222t151.5 153.5t165.5 59l205 -33l18 52l11 2l63 -31l16 -25q-13 -46 -34.5 -124t-67.5 -286.5t-70 -377.5l9 -8q218 0 331 125t113 337q0 267 -164.5 417.5t-439.5 150.5q-202 0 -358.5 -100t-238 -262.5 t-81.5 -356.5q0 -121 26 -228.5t83 -202t140.5 -164.5t204.5 -114.5t269 -52.5v-14l-53 -74q-195 9 -352 77.5t-257 179t-153 253t-53 303.5zM575 354q0 -87 17 -150t43 -63q56 0 175 178.5t234 444.5q-113 67 -206 67q-64 0 -125 -66t-99.5 -177.5t-38.5 -233.5z" />
<glyph unicode="A" horiz-adv-x="1183" d="M-37 -6l17 96q58 6 92 39.5t67 118.5l400 1046l129 35h16q172 -638 326 -1098q25 -77 66 -107.5t130 -37.5l4 -8l-14 -84q-147 6 -217 6t-146.5 -5t-117.5 -10l-41 -5l-6 14l8 80q105 7 143.5 24t38.5 54q0 40 -18 98l-68 223q-49 2 -213 2q-98 0 -223 -16l-76 -213 q-18 -55 -18 -80q0 -44 29 -64t94 -20h116l4 -8l-12 -88q-150 14 -285 14zM373 559h180q73 0 190 10l-161 537h-15z" />
<glyph unicode="B" horiz-adv-x="1222" d="M119 -25l12 95q95 19 127.5 54.5t32.5 121.5l2 860q0 66 -15 88.5t-61 22.5l-70 -5l-4 9l15 90q149 -6 227 -6l242 8q195 0 299 -80.5t104 -231.5q0 -101 -61.5 -183.5t-175.5 -131.5q149 -32 233 -114.5t84 -196.5q0 -105 -66 -196t-177 -145t-238 -54q-43 0 -133 10 t-144 10q-45 0 -103.5 -6t-94.5 -12zM436 227q0 -78 53 -110.5t181 -32.5q123 0 193.5 68.5t70.5 185.5q0 110 -70.5 180.5t-206.5 95.5l-213 -4zM449 719q192 -17 223 -17q8 2 21 6.5t46 24t58 46.5t46 77t21 111q0 132 -88 195t-272 63q-21 0 -28 -9.5t-9 -37.5 q-12 -197 -18 -459z" />
<glyph unicode="C" horiz-adv-x="1288" d="M82 608q0 205 92 370t255.5 258t367.5 93q76 0 165 -12.5t140 -24.5l51 -12l8 -12q-39 -154 -51 -342l-98 -8q6 55 6 100q0 190 -301 190q-206 0 -328.5 -144t-122.5 -388q0 -270 128.5 -434t340.5 -164q140 0 225 78.5t123 244.5l99 9q-42 -187 -56 -334l-12 -19 q-7 -3 -20.5 -8.5t-57 -20t-89.5 -25t-115.5 -19.5t-137.5 -9q-280 0 -446 171.5t-166 461.5z" />
<glyph unicode="D" horiz-adv-x="1439" d="M119 -25l12 95q95 19 127.5 54.5t32.5 121.5l2 860q0 66 -15 88.5t-61 22.5l-70 -5l-4 9l15 90q137 -6 215 -6l311 8q300 0 487 -170t187 -443q0 -201 -94 -367.5t-256.5 -262t-358.5 -95.5q-191 25 -295 25q-45 0 -104 -6t-95 -12zM438 268q0 -113 51.5 -150.5 t206.5 -37.5q221 0 348 152.5t127 418.5q0 270 -163 415.5t-465 145.5q-43 0 -58 -8.5t-16 -36.5q-31 -815 -31 -899z" />
<glyph unicode="E" horiz-adv-x="1210" d="M119 -20l12 94q92 12 126 48t34 124l2 860q0 66 -15 88.5t-61 22.5l-70 -5l-4 9l15 90q161 -6 284 -6q435 0 615 24l6 -12q-35 -152 -47 -340l-98 -8q4 59 4 88q0 37 -2.5 57.5t-15.5 39t-30 26.5t-57 14t-85 7t-124 1q-100 0 -121 -11.5t-22 -68.5l-16 -397q21 0 99 -1 t111 -1t95.5 5.5t108.5 11.5l46 5l9 -10l-29 -121q-176 7 -287 7q-70 0 -158 -15q-8 -295 -8 -391q0 -45 4 -66.5t22.5 -36t47.5 -17.5t88 -3q88 0 140.5 2.5t98 13t68.5 25t42.5 45.5t28 67t17.5 97l90 10l7 -10q-38 -170 -56 -344l-10 -12q-426 14 -621 14q-69 0 -140 -5 t-107 -10z" />
<glyph unicode="F" horiz-adv-x="1048" d="M119 -25l12 95q95 19 127.5 54.5t32.5 121.5l2 860q0 66 -15 88.5t-61 22.5l-70 -5l-4 9l15 90q161 -6 284 -6q404 0 576 24l6 -12q-35 -158 -47 -346l-98 -8q4 65 4 94q0 36 -2.5 57t-14 39.5t-26.5 26.5t-50 14t-74 7t-108 1q-100 0 -121 -11.5t-22 -68.5l-16 -432 l210 -2q28 0 81.5 6t93.5 12l40 5l9 -11l-29 -122q-156 6 -252 6q-70 0 -158 -15l-8 -340q0 -83 18 -111t72 -28l146 6l4 -8l-19 -96q-194 8 -305 8q-45 0 -103.5 -6t-94.5 -12z" />
<glyph unicode="G" horiz-adv-x="1366" d="M82 608q0 212 90 376t253.5 254.5t375.5 90.5q76 0 175 -12.5t160 -24.5l62 -12l8 -12q-41 -154 -53 -342l-96 -8q6 55 6 110q0 95 -73 137.5t-236 42.5q-234 0 -364 -140t-130 -394q0 -270 127.5 -433t339.5 -163q73 0 143 19.5t104 38.5l34 20v250q0 68 -21.5 89 t-91.5 21h-141l-4 8l18 103q139 -9 260 -9q39 0 83 3t69 5l24 3l8 -45q-37 -31 -50 -97t-13 -219q0 -119 14 -180l-12 -18q-9 -4 -24.5 -10.5t-66 -22.5t-102.5 -28.5t-128.5 -23t-149.5 -10.5q-274 0 -436 171.5t-162 461.5z" />
<glyph unicode="H" horiz-adv-x="1544" d="M119 -25l12 95q95 19 127.5 54.5t32.5 121.5l2 860q0 66 -15 88.5t-61 22.5l-70 -5l-4 9l15 90q149 -6 227 -6q39 0 94 4.5t90 8.5l35 5l-8 -92q-47 -7 -71 -15.5t-38.5 -30.5t-19 -50.5t-6.5 -87.5l-12 -332l344 -2q130 0 303 20l2 373q0 66 -15 88.5t-61 22.5l-70 -5 l-4 9l15 90q0 -1 75 -3.5t125 -2.5q44 0 105.5 4.5t101.5 8.5l39 5l-8 -92q-76 -10 -102 -34t-29 -83q-29 -619 -29 -885q0 -83 18 -111t72 -28l92 6l4 -8l-18 -94q-162 6 -252 6l-235 -4l18 92q67 1 99 19t44.5 62.5t12.5 137.5v309q-218 2 -312 2q-29 0 -114 -5.5 t-156 -10.5l-70 -6l-8 -367q0 -83 18 -111t72 -28l92 6l5 -8l-19 -94q0 6 -174 6q-89 0 -198.5 -9t-112.5 -16z" />
<glyph unicode="I" horiz-adv-x="739" d="M115 -25l12 95q97 19 130.5 54.5t33.5 121.5l2 860q0 65 -15.5 88t-60.5 23l-86 -5l-4 9l14 90q160 -6 244 -6q42 0 101 4.5t97 8.5l38 5l-9 -92q-85 -10 -114.5 -34t-32.5 -83q-29 -615 -29 -885q0 -83 18 -111t72 -28l109 6l4 -8l-18 -94q-173 6 -269 6 q-46 0 -105.5 -6t-95.5 -12z" />
<glyph unicode="J" horiz-adv-x="669" d="M47 -227l6 16q125 75 170 169t45 278l2 870q0 66 -14.5 87t-60.5 21l-97 -8l-4 8l15 91h221q39 0 98.5 4.5t99.5 8.5l39 5l-8 -92q-72 -11 -93 -32t-24 -85q-21 -486 -26 -876q-1 -209 -81 -335.5t-253 -197.5z" />
<glyph unicode="K" horiz-adv-x="1286" d="M117 -2l20 92q95 9 124.5 38.5t29.5 117.5l2 860q0 66 -15 88.5t-61 22.5l-70 -5l-4 9l15 90q149 -6 227 -6q39 0 94 4.5t90 8.5l35 5l-8 -92q-76 -12 -104.5 -38t-30.5 -85l-25 -879v-21q0 -66 16 -90q19 -28 74 -28l92 6l5 -8l-19 -94q-162 6 -252 6zM496 645l2 29 l366 381q64 64 64 106q0 53 -129 62l-4 8l14 88q149 -14 225 -14q36 0 83 2t77 4l29 2l8 -15l-14 -84q-54 -10 -98.5 -43t-137.5 -129l-330 -346l344 -448q74 -96 132.5 -135t129.5 -39l9 -8l-13 -70q-147 -25 -170 -25q-102 0 -229 176z" />
<glyph unicode="L" horiz-adv-x="1038" d="M139 -20l13 94q80 12 109.5 48.5t29.5 123.5l2 860q0 66 -15 88.5t-61 22.5l-70 -5l-4 9l15 90q151 -6 229 -6q39 0 94 4.5t90 8.5l35 5l-8 -92q-47 -6 -72 -15t-38 -29t-16.5 -42.5t-6.5 -68.5q0 -7 -0.5 -11.5t-1 -11.5t-0.5 -13q-25 -356 -25 -790q0 -56 5 -84 t25 -46.5t51 -23t93 -4.5q63 0 104 3.5t76 16t55.5 31t38.5 53.5t29 77.5t23 109.5l90 10l6 -10q-36 -186 -59 -389l-10 -12q-356 18 -551 18q-68 0 -137 -5t-103 -10z" />
<glyph unicode="M" horiz-adv-x="1734" d="M94 -16l10 94q65 8 94 42t38 116q90 844 90 884q0 54 -42.5 80.5t-136.5 32.5l-6 10l17 72q157 -10 223 -10q26 0 61 2t56 4l22 2q82 -265 168.5 -519t131.5 -376l46 -121h11q159 425 354 1012q0 1 24.5 0t59 -2.5t51.5 -1.5l221 12l4 -8l-10 -76q-89 -10 -125.5 -36 t-36.5 -77q0 -46 18.5 -336t35.5 -499q14 -121 32.5 -158t67.5 -37l57 4l4 -8l-18 -92q-121 6 -195 6q-39 0 -92.5 -4t-86.5 -8l-34 -4l9 94q63 7 91.5 31.5t28.5 70.5q0 31 -17.5 252.5t-34.5 427.5l-17 205h-11l-395 -1090l-49 -14l-397 1104h-10q-70 -858 -70 -911 q0 -64 63 -64l84 2l4 -8l-18 -92q-131 8 -199 8q-36 0 -80 -4t-70 -8z" />
<glyph unicode="N" horiz-adv-x="1472" d="M111 1239l16 76q119 -10 176 -10q30 0 64.5 2t53.5 4l19 2q151 -235 323 -489t269 -390l96 -137h11v829q0 88 -68 88l-78 -2l-4 9l19 92q124 -8 194 -8q38 0 89 4t83 8l31 4l-10 -94q-71 -9 -105 -39.5t-35 -89.5l-28 -1151l-60 -29q-177 277 -367.5 559t-291.5 426 l-102 144h-11l-10 -875q0 -46 14.5 -64t49.5 -18l104 2l4 -8l-18 -92q-129 8 -217 8q-36 0 -84 -4t-78 -8l-29 -4l10 94q64 8 95 37.5t32 91.5l27 895q0 63 -37.5 89.5t-140.5 37.5z" />
<glyph unicode="O" horiz-adv-x="1417" d="M82 608q0 200 89 365.5t243.5 260.5t341.5 95q169 0 301 -79.5t205 -223.5t73 -328q0 -151 -53 -285t-144.5 -230t-218.5 -152t-270 -56q-252 0 -409.5 176t-157.5 457zM258 674q0 -262 127 -428t328 -166q195 0 317.5 148t122.5 384q0 263 -130 428.5t-337 165.5 q-190 0 -309 -148t-119 -384z" />
<glyph unicode="P" horiz-adv-x="1128" d="M129 -16l14 94q90 15 119 48t29 120l2 860q0 66 -15.5 88.5t-60.5 22.5l-70 -5l-4 9l15 90q149 -6 227 -6l258 8q212 0 325 -94t113 -271q0 -114 -66 -218t-174.5 -167t-228.5 -63h-172l-4 -201q0 -60 2 -94t6.5 -59.5t15.5 -36t25.5 -15t40.5 -4.5l111 6l4 -8l-18 -94 q0 1 -32.5 2.5t-78 2.5t-78.5 1q-83 0 -192.5 -5.5t-112.5 -10.5zM444 621l218 -31q247 41 247 319q0 157 -93 230t-292 73q-38 0 -46 -3.5t-9 -24.5q-19 -282 -25 -563z" />
<glyph unicode="Q" horiz-adv-x="1427" d="M82 608q0 200 89 365.5t243.5 260.5t341.5 95q169 0 301 -79.5t205 -223.5t73 -328q0 -253 -139.5 -444.5t-361.5 -253.5v-10q218 -147 361.5 -209t266.5 -62q43 0 84 5.5t60 10.5l20 5l8 -6l13 -37q-17 -16 -44 -39t-80 -61.5t-71 -38.5q-102 0 -192.5 32t-224.5 116.5 t-386 268.5q-252 0 -409.5 176t-157.5 457zM258 674q0 -262 127 -428t328 -166q195 0 317.5 148t122.5 384q0 263 -130 428.5t-337 165.5q-190 0 -309 -148t-119 -384z" />
<glyph unicode="R" horiz-adv-x="1251" d="M117 -8l18 92q96 11 126 42t30 120l2 860q0 66 -15.5 88.5t-60.5 22.5l-70 -5l-4 9l15 90q149 -6 227 -6l252 8q191 0 301.5 -86.5t110.5 -235.5q0 -123 -79 -225.5t-222 -167.5l225 -356q60 -97 115.5 -135.5t138.5 -38.5l8 -9l-12 -69l-174 -23q-51 0 -109.5 52.5 t-108.5 142.5l-219 397h-170l-6 -305q0 -111 25 -139.5t123 -28.5l4 -8l-19 -86q0 1 -217 6h-38h-66q-59 -2 -95 -4zM446 674l211 -21q9 2 24 7.5t53.5 29t67.5 54t53 86.5t24 124q0 271 -375 271q-21 0 -28 -9.5t-9 -37.5q-19 -338 -21 -504z" />
<glyph unicode="S" horiz-adv-x="1085" d="M117 66q24 157 24 356l92 10q0 -92 7 -150.5t23 -101.5t48 -64t76 -30.5t113 -9.5q128 0 206 61t78 164q0 37 -16.5 71t-42.5 60t-66.5 53.5t-78.5 48.5t-89 47l-6 3t-5.5 3t-6.5 3q-62 33 -99 54t-87.5 57.5t-78.5 69t-48.5 79.5t-20.5 98q0 161 136 271t335 110 q81 0 159.5 -12.5t116.5 -25.5l38 -13l6 -12q-33 -158 -45 -346l-80 -9l-12 11q6 43 6 106q0 107 -53 149t-191 42q-112 0 -185 -56t-73 -141q0 -44 21 -82.5t66 -73.5t84.5 -59t106.5 -59q162 -84 220 -124q156 -115 159 -249q0 -175 -141.5 -287.5t-363.5 -112.5 q-86 0 -166.5 17.5t-118.5 35.5l-37 17z" />
<glyph unicode="T" horiz-adv-x="1118" d="M18 958q25 181 31 355l19 16l170 -23h634l175 23l18 -16q3 -77 10.5 -163.5t14.5 -134.5l6 -48l-97 -9q-7 44 -11 67.5t-12.5 53t-13 43.5t-18 32t-22 25t-31.5 16.5t-40 12.5t-52.5 7.5t-64.5 6t-81 3.5q-12 -123 -22 -435t-10 -561q0 -75 26.5 -107t89.5 -32 q32 0 60.5 1.5t40.5 2.5l12 2l6 -8l-18 -94q-205 6 -301 6l-281 -8l16 88q52 4 81.5 8.5t55.5 16.5t37 25.5t19.5 44t10 64t1.5 93.5v893q-72 -3 -107 -4.5t-79.5 -8.5t-61 -11t-40.5 -21t-30 -29t-17.5 -45t-15 -59t-11.5 -80z" />
<glyph unicode="U" horiz-adv-x="1394" d="M72 1221l14 90q153 -6 231 -6q39 0 93 4.5t88 8.5l34 5l-8 -92q-76 -10 -102 -34t-29 -83l-16 -602q0 -203 88 -311.5t254 -108.5q167 0 255.5 88.5t88.5 257.5l-12 668q-5 71 -18.5 91t-57.5 20l-88 -5l-4 9l14 90q153 -6 231 -6q39 0 89 4.5t80 8.5l30 5l-8 -92 q-90 -12 -115.5 -33t-25.5 -84v-688q0 -215 -133 -333t-375 -118q-215 0 -332 118t-117 335v678q0 66 -15 88.5t-61 22.5l-69 -5z" />
<glyph unicode="V" horiz-adv-x="1249" d="M-18 1223l14 88q167 -6 237 -6q48 0 125 5.5t130 11.5l53 5l6 -14l-8 -80q-109 -8 -146 -25t-37 -61q0 -29 64.5 -266t129.5 -459l64 -223h19q340 879 340 942q0 43 -33.5 62.5t-108.5 19.5h-106l-4 8l12 88q158 -14 293 -14l225 6l-16 -97q-63 -3 -88 -21t-47 -77 l-441 -1106l-131 -45q-182 599 -354 1133q-19 59 -64 87t-124 29z" />
<glyph unicode="W" horiz-adv-x="1908" d="M-14 1223l12 88q163 -6 231 -6q64 0 138.5 5.5t116.5 11.5l42 5l6 -14l-8 -80q-105 -8 -140.5 -24.5t-35.5 -59.5q0 -36 63 -273.5t126 -457.5l63 -219h12l289 786l-37 113q-20 60 -63.5 86.5t-120.5 29.5l-4 9l14 88q164 -6 232 -6q55 0 129 5.5t121 11.5l47 5l6 -14 l-8 -80q-106 -8 -142.5 -25t-36.5 -61q0 -30 63.5 -267t126.5 -459l64 -222h13q331 896 331 952q0 38 -32.5 55t-106.5 17h-102l-4 8l14 88q154 -14 285 -14l217 6l-15 -97q-61 -3 -85.5 -21t-45.5 -77l-430 -1106l-127 -45q-117 421 -256 869h-12l-291 -824l-131 -45 q-170 602 -342 1133q-19 59 -63.5 87t-120.5 29q0 1 -1 4.5t-1 4.5z" />
<glyph unicode="X" horiz-adv-x="1343" d="M25 6l14 84q84 24 155.5 89t176.5 194l225 278l-268 402q-100 147 -281 170l-4 8l12 80q201 -6 295 -6q72 0 141 4t103 8l33 4l6 -14l-6 -72q-85 -6 -122.5 -23t-37.5 -51q0 -37 231 -389q16 22 102 134.5t126.5 174.5t40.5 88q0 28 -27.5 42t-91.5 20l-4 8l12 80 q149 -14 225 -14l199 8l8 -15l-12 -75q-61 -12 -104.5 -37.5t-77 -60.5t-97.5 -115l-247 -314l299 -436q57 -81 121 -121t159 -49l4 -8l-14 -88q-160 6 -254 6q-51 0 -130.5 -4t-132.5 -8l-54 -4l-7 14l9 80q84 5 121.5 21t37.5 51q0 31 -41 90l-223 335l-188 -249 q-63 -83 -84 -119t-21 -64t28.5 -42t90.5 -19l4 -8l-14 -88q-149 14 -225 14l-203 -8z" />
<glyph unicode="Y" horiz-adv-x="1101" d="M-39 1231l12 80q132 -6 226 -6q51 0 123.5 4t119.5 8l47 4l7 -14l-7 -72q-91 -7 -123 -22.5t-32 -51.5q0 -26 57 -158t113.5 -251t58.5 -119h10l234 434q33 61 33 102q0 53 -129 62l-4 8l12 80q151 -14 227 -14q36 0 83 2t77 4l29 2l8 -15l-13 -75q-93 -18 -132.5 -57 t-113.5 -171q-14 -25 -22 -39l-205 -360q-28 -48 -34.5 -105t-9.5 -217q0 -10 -0.5 -15t-0.5 -14v-16v-14q0 -68 18 -95q19 -30 72 -30l101 6l4 -8l-19 -94q-170 6 -260 6q-45 0 -103.5 -6t-94.5 -12l-35 -7l12 95q56 11 87 24.5t48 41t21 60t4 95.5v90q0 63 -12 111.5 t-47 119.5l-185 375q-60 123 -79 150q-40 57 -108 75q-29 7 -71 11z" />
<glyph unicode="Z" horiz-adv-x="1163" d="M70 59l764 1155l-355 -12q-141 -6 -200 -66.5t-76 -215.5l-97 -9q33 212 37 400l21 18l358 -22l529 -15l22 -59q-385 -512 -790 -1151l415 14q106 2 171.5 84t99.5 256l96 10q-41 -222 -51 -419l-31 -33l-741 12l-144 -12z" />
<glyph unicode="[" horiz-adv-x="632" d="M197 -258q22 565 22 770q0 91 -5.5 285t-11.5 343l-5 148l376 23l9 -13l-13 -63l-233 -49v-1342l237 -49l9 -14l-13 -62z" />
<glyph unicode="\" horiz-adv-x="673" d="M76 1362l16 20h94l236 -919q36 -138 83 -306t76 -267l29 -99l-14 -16h-98q-86 328 -172 665z" />
<glyph unicode="]" horiz-adv-x="632" d="M51 -268l12 63l234 49v1342l-238 49l-8 14l12 62l373 -23q-22 -565 -22 -770q0 -91 5.5 -285t10.5 -343l6 -148l-377 -23z" />
<glyph unicode="^" d="M115 154q86 225 166 411l176 416l96 4l22 -16q107 -256 173 -406q32 -75 75.5 -171t70.5 -155l28 -59l-82 -61l-23 2q-88 202 -162 370l-143 345h-12l-123 -316q-31 -75 -68.5 -174t-59.5 -161l-22 -62l-102 14z" />
<glyph unicode="_" horiz-adv-x="937" d="M-12 -276l22 100q308 -2 490 -2q145 0 280 6q158 4 158 6l12 -20l-16 -105q-195 0 -559.5 -2t-374.5 -2z" />
<glyph unicode="`" horiz-adv-x="815" d="M145 1374l78 84l21 4q160 -192 307 -352l-41 -39l-18 -4q-76 69 -162.5 140.5t-134.5 108.5l-48 36z" />
<glyph unicode="a" horiz-adv-x="954" d="M84 238q0 60 30 105t79 58l387 107l4 90q0 103 -47.5 160t-133.5 57q-37 0 -76 -10.5t-68 -25.5t-52.5 -30t-36.5 -25l-12 -11l-11 6l-24 88q28 16 71 39.5t133.5 63.5t129.5 40q134 0 209 -70t75 -194q0 -31 -18 -218t-18 -253q0 -44 21.5 -69t61.5 -25q29 0 60 12.5 t47 25.5l16 13l29 -33q-3 -5 -9 -14t-24.5 -33t-38 -44.5t-48.5 -41.5t-58 -31q-167 0 -182 166l-9 2q-74 -74 -134 -116.5t-91 -42.5q-114 0 -188 72t-74 182zM240 260q0 -59 40 -98t101 -39q38 0 90.5 27.5t95.5 70.5l8 209l-276 -84q-59 -18 -59 -86z" />
<glyph unicode="b" horiz-adv-x="1040" d="M47 1393l8 67q63 8 138.5 23t120.5 26l44 11l13 -27q-30 -49 -47 -686q199 143 247 143q175 0 285.5 -121.5t110.5 -316.5q0 -224 -149 -380.5t-361 -156.5q-61 0 -127 6.5t-102 12.5l-35 6l-19 16v1266q0 111 -76 111q-10 0 -21.5 -1.5t-17.5 -3.5l-6 -2zM313 131 q37 -19 94 -31t107 -12q137 0 216 93.5t79 254.5q0 157 -78 266t-192 109q-41 0 -104 -32t-116 -79z" />
<glyph unicode="c" horiz-adv-x="868" d="M74 428q0 221 136 371.5t337 150.5q58 0 118 -10t91 -20l30 -9l7 -14q-37 -123 -43 -283l-84 -6v64q0 75 -46.5 121.5t-121.5 46.5q-126 0 -193 -88.5t-67 -253.5q0 -179 74.5 -282t203.5 -103q51 0 109 16.5t91 33.5l32 17l12 -4l22 -63q-7 -6 -20 -15t-49.5 -33 t-69.5 -42t-73 -33t-68 -15q-195 0 -311.5 123.5t-116.5 329.5z" />
<glyph unicode="d" horiz-adv-x="1099" d="M74 414q0 145 68.5 268.5t186 195.5t255.5 72q65 0 141 -8v340q0 111 -76 111q-10 0 -23 -2.5t-20 -4.5l-8 -2l8 76q63 8 138.5 23t119.5 26l45 11l13 -27q-22 -35 -40 -432t-18 -846q0 -44 22 -69t62 -25q29 0 60 12.5t47 25.5l16 13l29 -33q-3 -5 -9.5 -14.5 t-25.5 -34.5t-39 -45.5t-48.5 -41t-55.5 -28.5q-162 0 -183 146l-14 6q-213 -145 -256 -145q-177 0 -286 119t-109 313zM231 483q0 -155 78.5 -261.5t192.5 -106.5q44 0 99.5 27t89.5 54l34 27v561q-9 5 -25 13t-67.5 21t-106.5 13q-137 0 -216 -93.5t-79 -254.5z" />
<glyph unicode="e" horiz-adv-x="917" d="M74 428q0 138 61.5 258.5t166 192t224.5 71.5q151 0 228 -75.5t77 -221.5q0 -23 -3 -48t-6 -39l-3 -13l-26 -25h-566v-32q0 -172 83 -276.5t220 -104.5q56 0 119 15.5t98 31.5l35 16l13 -4l22 -59q-8 -6 -21.5 -15.5t-53 -33.5t-76 -42.5t-82.5 -33.5t-80 -15 q-193 0 -311.5 125t-118.5 328zM236 604l370 19q31 3 41 13.5t10 41.5q0 82 -44 125t-126 43q-96 0 -164 -65t-87 -177z" />
<glyph unicode="f" horiz-adv-x="675" d="M84 842l14 69l123 23v8q1 267 128.5 422.5t342.5 155.5q62 0 120.5 -10t85.5 -20l28 -9l4 -19q-33 -57 -64 -133l-22 -6q-12 9 -32.5 21.5t-82.5 33.5t-121 21q-117 0 -174.5 -93.5t-60.5 -285.5l-2 -100l282 6l6 -6l-20 -109q-127 6 -270 6l-9 -616q0 -58 25.5 -85.5 t79.5 -27.5l123 4l4 -8l-14 -88q-174 4 -254 4q-51 0 -108.5 -2t-89.5 -4l-32 -2l10 80q117 15 117 121v552q-3 49 -28 65t-101 19z" />
<glyph unicode="g" horiz-adv-x="1032" d="M106 174q28 29 71 62t73 51l29 18v8q-72 38 -112 110t-40 163q0 146 114.5 255t266.5 109q42 0 110 -11t91 -11q46 5 116.5 20.5t118.5 27.5l47 13l6 -8l-22 -115q-90 -12 -176 -18l-8 -10q81 -90 81 -207q0 -154 -117.5 -259.5t-287.5 -105.5q-46 0 -119 17 q-86 -48 -86 -90q0 -92 246 -101q238 -12 337 -62t99 -157q0 -92 -72 -178t-190.5 -138.5t-245.5 -52.5q-146 0 -227.5 72t-81.5 201q30 40 81 86t86 72l36 26v12q-95 12 -159.5 70t-64.5 131zM281 621q0 -119 64.5 -192t170.5 -73q94 0 148.5 60t54.5 164q0 118 -66 192 t-170 74q-93 0 -147.5 -61t-54.5 -164zM287 -227q0 -78 60 -123t165 -45q120 0 210.5 61t90.5 141q0 41 -32.5 66t-115.5 44.5t-251 41.5q-5 -4 -13.5 -11t-30.5 -28t-39 -42t-30.5 -50t-13.5 -55z" />
<glyph unicode="h" horiz-adv-x="1093" d="M51 1395l8 65q63 8 138.5 23t120.5 26l44 11l13 -27q-15 -23 -28 -218t-21 -484q230 159 307 159q134 0 207 -69t73 -195q0 -30 -16 -225t-16 -260q0 -61 16.5 -88t54.5 -27l72 4l4 -8l-16 -88q-107 6 -183 6q-38 0 -91 -6t-86 -12l-34 -7l9 84q61 17 87.5 48.5 t26.5 85.5l13 405q0 102 -44 157.5t-126 55.5q-49 0 -109.5 -25t-93 -46.5t-57.5 -41.5q-7 -277 -7 -497q0 -63 17 -89t57 -26l72 4l4 -8l-18 -88q-111 6 -187 6l-203 -4l13 84q59 6 82.5 31t23.5 82v1089q0 56 -18 81.5t-58 25.5h-43z" />
<glyph unicode="i" horiz-adv-x="577" d="M86 815l8 76q61 9 134.5 23.5t117.5 25.5l43 10l10 -24q-19 -43 -33 -262.5t-14 -462.5q0 -60 17 -87.5t55 -27.5l72 4l4 -8l-17 -88q-106 6 -182 6q-38 0 -91 -6t-86 -12l-34 -7l8 84q61 17 88 48.5t27 85.5v520q0 110 -76 110q-10 0 -23 -2t-20 -4zM172 1337 q0 51 35 86t86 35q43 0 71.5 -29.5t28.5 -74.5q0 -51 -35 -86t-86 -35q-44 0 -72 29t-28 75z" />
<glyph unicode="j" horiz-adv-x="512" d="M31 -455l4 17q88 88 119.5 196.5t31.5 319.5v635q0 63 -18 86.5t-64 23.5l-55 -6l8 76q56 7 129.5 21.5t119.5 25.5l46 10l10 -24q-34 -58 -34 -955q0 -148 -67 -268.5t-193 -196.5zM147 1337q0 51 35 86t86 35q43 0 72 -29.5t29 -74.5q0 -51 -35 -86t-86 -35 q-44 0 -72.5 29t-28.5 75z" />
<glyph unicode="k" horiz-adv-x="1017" d="M51 1384q0 13 4 37l4 39q63 8 138.5 23t120.5 26l44 11l13 -27q-22 -34 -40 -434t-18 -858q0 -63 17 -89t57 -26l72 4l4 -8l-18 -88q-111 6 -187 6q-38 0 -89 -3t-83 -6l-31 -3l11 84q20 3 35.5 7t27 12t19 14.5t13 21.5t8 24.5t4 32t1.5 36.5v45v11v1006q0 111 -76 111 q-10 0 -23 -2.5t-21 -4.5zM369 487l4 29l250 229q49 46 49 72q0 23 -26.5 33t-86.5 10l-6 10l18 60q127 -4 201 -4q35 0 83.5 3t80.5 6l31 3l6 -10l-17 -64q-35 -10 -75 -32.5t-72 -46t-76.5 -63t-71 -65t-74 -72.5t-67.5 -67l215 -276q70 -91 127.5 -129.5t120.5 -38.5 l6 -11l-12 -59q-121 -33 -152 -33q-29 0 -71 21q-60 32 -144 153z" />
<glyph unicode="l" horiz-adv-x="499" d="M51 1384q0 13 4 37l4 39q63 8 138.5 23t120.5 26l44 11l13 -27q-22 -34 -40 -435.5t-18 -856.5q0 -61 17 -88t55 -27l72 4l4 -8l-16 -88q-107 6 -183 6q-38 0 -91 -6t-87 -12l-33 -7l8 84q29 8 48.5 17t32.5 24.5t20 27t10 37.5t3.5 43t0.5 56v12v1006q0 111 -76 111 q-10 0 -23 -2.5t-21 -4.5z" />
<glyph unicode="m" horiz-adv-x="1703" d="M80 825l6 68q63 10 134.5 25t111.5 24l41 10l12 -16q-19 -65 -23 -135l5 -6q226 155 301 155q98 0 166 -42.5t96 -119.5q227 162 309 162q129 0 205 -71.5t76 -192.5q0 -30 -14.5 -225t-14.5 -260q0 -63 17 -89t57 -26l71 4l4 -8l-18 -88q-110 6 -186 6q-38 0 -89 -3 t-83 -6l-31 -3l10 84q59 9 84 36.5t25 84.5l8 405q0 102 -44 157.5t-126 55.5q-109 0 -248 -102l-22 -508q0 -61 16.5 -88t54.5 -27l72 4l4 -8l-16 -88q-107 6 -183 6q-38 0 -91 -6t-87 -12l-33 -7l9 84q61 17 87.5 48.5t26.5 85.5l8 405q0 102 -44 157.5t-126 55.5 q-111 0 -251 -106q-19 -447 -19 -504q0 -63 17 -89t57 -26l72 4l4 -8l-19 -88q-110 6 -186 6l-203 -4l12 84q59 6 83 31t24 82v499q0 69 -22.5 97t-77.5 28h-23z" />
<glyph unicode="n" horiz-adv-x="1150" d="M80 825l6 68q63 10 134.5 25t111.5 24l41 10l12 -16q-19 -65 -23 -135l5 -6q230 155 301 155q129 0 204.5 -71t75.5 -193q0 -30 -14 -225t-14 -260q0 -61 16.5 -88t54.5 -27l72 4l4 -8l-16 -88q-107 6 -183 6q-38 0 -91 -6t-87 -12l-33 -7l9 84q61 17 87.5 48.5 t26.5 85.5l8 405q0 102 -44 157.5t-126 55.5q-111 0 -251 -106q-19 -447 -19 -504q0 -63 17 -89t57 -26l72 4l4 -8l-19 -88q-110 6 -186 6q-38 0 -89 -3t-82 -6l-32 -3l10 84q59 9 84 36.5t25 84.5v499q0 69 -22.5 97t-77.5 28h-23z" />
<glyph unicode="o" horiz-adv-x="1019" d="M74 430q0 144 62.5 263.5t171.5 188t241 68.5q175 0 286 -126.5t111 -327.5q0 -144 -62.5 -264t-171.5 -188.5t-241 -68.5q-177 0 -287 127t-110 328zM238 489q0 -184 80.5 -298.5t209.5 -114.5q115 0 182.5 93t67.5 253q0 185 -81 301.5t-210 116.5q-115 0 -182 -94.5 t-67 -256.5z" />
<glyph unicode="p" horiz-adv-x="1081" d="M82 825l6 68q63 10 134.5 25t111.5 24l41 10l12 -16q-14 -58 -20 -111l8 -14q192 133 237 133q177 0 286.5 -119.5t109.5 -312.5q0 -145 -69 -269t-186.5 -196t-254.5 -72l-150 9q0 -35 1 -105.5t1 -105.5q0 -95 19 -128.5t77 -33.5q12 0 35 1t35 1l4 -6l-16 -78h-195 q-52 0 -106 -3.5t-83 -7.5l-28 -3l10 79q66 7 85.5 35t19.5 113q0 30 2 161.5t2 178.5v610q0 69 -22.5 97t-77.5 28h-23zM350 127q90 -39 205 -39q137 0 216 93.5t79 254.5q0 155 -78 262t-192 107q-41 0 -100 -27.5t-113 -72.5q-17 -286 -17 -578z" />
<glyph unicode="q" horiz-adv-x="1056" d="M74 414q0 145 68.5 268.5t186 195.5t255.5 72q96 0 188 -18l113 47l16 -18q-39 -95 -39 -1178q0 -110 13.5 -141t60.5 -31l53 2l4 -4l-14 -80h-188q-42 0 -97 -2t-89 -4l-34 -2l11 78q84 4 108 26.5t27 98.5l8 399q-214 -148 -256 -148q-175 0 -285 122t-110 317z M231 483q0 -157 78.5 -265.5t192.5 -108.5q44 0 99.5 28.5t89.5 56.5l34 29v561q-9 5 -25 13t-67.5 21t-106.5 13q-137 0 -216 -93.5t-79 -254.5z" />
<glyph unicode="r" horiz-adv-x="784" d="M92 827l6 64q56 10 125 25.5t111 25.5l41 10l14 -12q-2 -13 -5.5 -34.5t-8.5 -77.5q-4 -47 -4 -84v-15l8 -6q62 96 144.5 157.5t144.5 61.5q20 0 35.5 -2t21.5 -4l6 -2l6 -8q-28 -168 -32 -293l-80 -6q0 84 -11 111.5t-45 27.5q-45 0 -96.5 -37.5t-93.5 -101.5 q-17 -373 -17 -418q0 -69 20.5 -94t78.5 -25l90 4l2 -8l-18 -90q-129 4 -209 4q-54 0 -107.5 -2t-80.5 -4l-27 -2l10 82q62 6 82 39.5t20 130.5v450q0 67 -18.5 96t-59.5 29l-43 -6z" />
<glyph unicode="s" horiz-adv-x="823" d="M100 33q6 32 15 127.5t10 146.5l72 10q0 -135 44.5 -190t153.5 -55q77 0 131 35t54 86t-48 92.5t-190 117.5q-117 60 -170 120.5t-53 133.5q0 126 108 209.5t269 83.5q49 0 100 -8t78 -16l26 -8l5 -11q-29 -115 -39 -250l-76 -6q4 42 4 60q0 74 -40 107.5t-128 33.5 q-69 0 -117.5 -33.5t-48.5 -79.5q0 -49 41 -91.5t137 -92.5q166 -88 226.5 -148t60.5 -137q0 -78 -51.5 -146t-138 -108.5t-185.5 -40.5q-67 0 -128 10.5t-88 21.5l-28 11z" />
<glyph unicode="t" horiz-adv-x="675" d="M43 842l10 61q59 29 122.5 76t97.5 79l34 32l41 -17q-8 -53 -16 -153l301 6l6 -6l-18 -109l-297 6q-15 -242 -15 -512q0 -104 36 -147t124 -43q30 0 65 9.5t54 18.5l20 9l21 -54q-18 -14 -45.5 -34.5t-83.5 -54.5t-78 -34q-139 0 -196.5 56.5t-57.5 191.5v504 q0 56 -25 77.5t-92 24.5z" />
<glyph unicode="u" horiz-adv-x="1107" d="M57 813l9 76q56 9 129 24t118 26l45 11l13 -24q-20 -54 -37 -242t-17 -367q0 -200 164 -200q43 0 95.5 22.5t74.5 38t78 55.5v476q0 61 -22.5 85.5t-79.5 24.5l-49 -2l8 74q64 9 143 23.5t125 25.5l47 10l12 -24q-19 -46 -32 -255t-13 -456q0 -44 22 -69t62 -25 q29 0 60 12.5t47 25.5l16 13l29 -33q-4 -7 -12 -18t-30.5 -39t-43 -50t-46.5 -39.5t-46 -17.5q-168 0 -183 166l-10 4q-99 -75 -177.5 -122.5t-106.5 -47.5q-132 0 -202.5 61.5t-70.5 176.5l8 498q0 110 -75 110q-10 0 -23 -2t-21 -4z" />
<glyph unicode="v" horiz-adv-x="911" d="M-20 860l12 68q123 -2 170 -2q56 0 117.5 3.5t94.5 6.5l34 4l4 -10l-13 -64q-70 -3 -95 -14t-25 -39q0 -26 43.5 -188t87.5 -311l43 -148h8q38 94 83 204t70.5 171.5t50 122t34.5 93t10 46.5q0 28 -19 38.5t-69 10.5h-78l-8 12l10 64q113 -2 213 -2l168 2l-15 -76 q-43 -6 -68 -35.5t-63 -118.5l-297 -698l-110 -35q-191 609 -250 785q-35 99 -139 102z" />
<glyph unicode="w" horiz-adv-x="1443" d="M-8 860l12 68q119 -2 164 -2q55 0 115 3.5t93 6.5l32 4l4 -10l-13 -64q-67 -3 -91.5 -14t-24.5 -39t42 -189.5t84 -309.5l42 -148h8q41 105 91 229.5t80 201t46 120.5q-24 70 -55.5 102.5t-90.5 32.5l-4 8l13 68q118 -2 163 -2q54 0 114 2.5t93 5.5l33 2l4 -10l-12 -64 q-70 -3 -93.5 -13t-23.5 -36t42 -188t84 -311l42 -148h8q37 94 80.5 204t68.5 171.5t48 122t33 93t10 46.5q0 28 -19 39.5t-65 11.5h-76l-8 12l10 64q105 -4 203 -4l168 2l-14 -76q-41 -4 -65.5 -34t-61.5 -120l-289 -698l-109 -35q-108 358 -184 604h-12l-228 -569 l-110 -35q-185 609 -242 785q-35 99 -135 102z" />
<glyph unicode="x" horiz-adv-x="972" d="M16 860l13 70q141 -4 207 -4q52 0 104 2t78 4l26 2l5 -10l-13 -64q-50 0 -71 -8.5t-21 -30.5q0 -13 8 -30.5t15 -27.5t26 -38l113 -164l125 158q25 31 34 42.5t19 29.5t10 32q0 15 -18 21t-70 6l-4 8l10 68h150l145 6l6 -10l-12 -66q-53 -17 -172 -154l-176 -206 l188 -269q54 -77 100.5 -112t106.5 -41l4 -8l-12 -70q-120 4 -186 4q-36 0 -93.5 -3t-96.5 -6l-40 -3l-4 10l12 63q51 2 73 11.5t22 31.5q0 27 -35 76l-150 209q-206 -249 -206 -285q0 -20 17.5 -26.5t72.5 -9.5l4 -9l-13 -67q-123 8 -170 8l-122 -6l-7 10l13 64 q16 8 28.5 16t27 20t22 18t25 25.5t23.5 26t30.5 35.5t33.5 39l176 205l-155 221q-70 100 -110 133t-112 45z" />
<glyph unicode="y" horiz-adv-x="913" d="M-18 860l12 68q123 -2 170 -2q54 0 115.5 3.5t96.5 6.5l34 4l4 -10l-13 -64q-70 -3 -95 -14t-25 -39q0 -32 45.5 -188.5t91.5 -297.5l45 -141h8q240 574 240 619q0 53 -78 53h-94l-4 8l12 68q107 -8 207 -8l174 2l-15 -76q-45 -7 -68.5 -31.5t-45.5 -85.5l-264 -622 q-50 -115 -83 -187t-69 -144.5t-62 -112.5t-56 -77t-58.5 -53t-60.5 -25q-30 -8 -64 -8h-8q-15 0 -52.5 48.5t-37.5 68.5l10 15q118 0 224 95.5t175 264.5q-125 397 -268 756q-25 51 -56.5 74t-82.5 24z" />
<glyph unicode="z" horiz-adv-x="942" d="M74 47l557 801l-256 -12q-100 -6 -138 -44t-49 -141l-79 -12q20 166 22 297l12 10l263 -16l430 -10l16 -43q-340 -439 -586 -805l303 18q82 6 126.5 64t66.5 186l82 10q-35 -183 -35 -330l-33 -32l-575 18l-107 -10z" />
<glyph unicode="{" horiz-adv-x="632" d="M94 506l8 43q83 23 137 66t54 104q0 44 -42 176.5t-42 196.5q0 100 68.5 168.5t189.5 68.5q24 0 53 -3t46 -6l18 -3l6 -10l-17 -62q-59 10 -94 10q-63 0 -94 -40t-31 -101q0 -45 28 -179.5t28 -186.5q0 -85 -43.5 -134.5t-106.5 -70.5v-13q150 -56 150 -215 q0 -56 -28 -192.5t-28 -181.5q0 -61 31 -100.5t96 -39.5q18 0 44 3.5t43 6.5l16 3l6 -13l-17 -57q-49 -16 -110 -16q-117 0 -185.5 68.5t-68.5 168.5q0 65 42 194.5t42 166.5q0 135 -199 180z" />
<glyph unicode="|" horiz-adv-x="761" d="M311 -539q0 738 2 1104l2 1065l123 23l23 -13q-12 -705 -12 -1044l2 -1124l-121 -23z" />
<glyph unicode="}" horiz-adv-x="632" d="M43 -250l16 62q60 -11 95 -11q63 0 94 40.5t31 101.5q0 45 -28 179.5t-28 186.5q0 85 43.5 134.5t106.5 70.5v12q-150 56 -150 215q0 56 28 193t28 182q0 61 -31 100t-96 39q-18 0 -44 -3t-42 -6l-17 -3l-6 12l16 58q50 16 111 16q117 0 185.5 -68.5t68.5 -168.5 q0 -65 -42 -194.5t-42 -166.5q0 -135 199 -180l-9 -43q-82 -23 -136 -66t-54 -104q0 -44 42 -176.5t42 -196.5q0 -100 -68.5 -168.5t-189.5 -68.5q-24 0 -53 3t-47 6l-17 3z" />
<glyph unicode="~" d="M88 457v10l156 182l32 8q58 0 252.5 -44t239.5 -44q22 0 54 28.5t54 56.5l21 28h12l45 -43v-10l-155 -183l-33 -8q-58 0 -252.5 44t-239.5 44q-22 0 -54 -28t-54 -56l-21 -28h-12z" />
<glyph unicode="&#xa1;" horiz-adv-x="583" d="M180 -473l107 971l57 14l23 -16l16 -934l-14 -21l-170 -37zM215 823q0 54 35.5 90.5t93.5 36.5q55 0 85 -34t30 -82q0 -54 -35 -90.5t-92 -36.5q-55 0 -86 33t-31 83z" />
<glyph unicode="&#xa2;" horiz-adv-x="868" d="M74 428q0 205 119.5 351.5t302.5 166.5l36 393l54 9l12 -19l-37 -379q56 -2 112 -11.5t85 -18.5l28 -9l7 -14q-37 -123 -43 -283l-84 -6v64q0 61 -31 103t-84 56l-70 -716q12 -2 35 -2q51 0 109 16.5t91 33.5l32 17l12 -4l22 -63q-7 -6 -20 -15t-49.5 -33t-69.5 -42 t-73 -33t-68 -15q-23 0 -33 2l-27 -286l-53 -6l-10 14l27 287q-154 28 -243 145.5t-89 296.5zM238 498q0 -141 47.5 -237t132.5 -130l67 709q-120 -4 -183.5 -93t-63.5 -249z" />
<glyph unicode="&#xa3;" horiz-adv-x="1075" d="M78 84q213 142 213 334v98q-3 47 -28 63.5t-101 20.5l-8 12l14 70l123 23v34q0 220 109.5 353t289.5 133q140 0 211 -31l10 -23l-47 -129l-39 -6q-127 68 -211 68q-177 0 -186 -254l-6 -160l330 6l6 -6l-21 -108q-161 6 -319 6l-4 -162q-9 -165 -131 -266l112 22 q62 0 183 -22.5t170 -22.5q138 0 153 154l37 -4q27 -65 27 -119q0 -83 -45 -138t-111 -55q-70 0 -250.5 46.5t-263.5 46.5q-90 0 -172 -62l-14 8z" />
<glyph unicode="&#xa4;" horiz-adv-x="909" d="M61 1051l5 24l79 53q66 -69 138 -141q74 49 166 49q91 0 165 -49l140 154l26 -6l56 -82l-144 -142q58 -77 58 -176q0 -86 -48 -160l146 -135l-6 -22l-82 -62l-135 136q-78 -56 -176 -56q-97 0 -175 56l-137 -138l-22 6l-47 80q65 61 133 127q-51 73 -51 168q0 97 55 174z M248 735q0 -83 59 -141.5t142 -58.5q85 0 143.5 58.5t58.5 141.5q0 85 -58.5 144t-143.5 59q-83 0 -142 -59t-59 -144z" />
<glyph unicode="&#xa5;" horiz-adv-x="1124" d="M63 961l15 73q118 -6 198 -6q44 0 106 4t101 7.5t39 2.5l10 -20l-6 -70q-83 -9 -106 -18.5t-23 -30.5q0 -19 25 -74h-2l164 -321l190 326q27 48 27 75q0 31 -109 41q0 2 -1 7.5t-1 7.5l10 75q127 -12 201 -12l164 6l10 -14l-12 -76q-80 -12 -119 -48q-21 -21 -77 -106 q-2 -2 -3 -4l-86 -139l236 4l12 -18l-6 -62h-289l-72 -116q-17 -33 -20 -80l375 8l12 -18l-6 -62h-383q0 -19 -1 -59t-1 -60q0 -58 13 -78t52 -20q6 0 19 1t20 1l56 2l4 -16l-19 -78q-147 4 -225 4q-36 0 -87.5 -5t-84.5 -10l-33 -5l10 88q21 4 37 7t29.5 9.5t23 10 t17.5 14.5t12.5 15.5t8 21.5t5 24t2.5 31.5t1 35v43.5v7.5v7v8.5q-62 0 -185 -1t-184 -1l-10 14l10 60h362q-18 64 -43 108l-49 88q-45 0 -135 -1t-135 -1l-10 15l10 59h229q-18 32 -39.5 75t-33.5 66.5t-29.5 52.5t-33 44.5t-38 30.5t-50.5 21.5t-64 8.5z" />
<glyph unicode="&#xa6;" horiz-adv-x="761" d="M311 340l131 25l7 -7l2 -886l-121 -23l-19 12v879zM313 758q0 146 1 436t1 436l123 23l23 -13q-10 -511 -12 -870l-127 -18z" />
<glyph unicode="&#xa7;" horiz-adv-x="1048" d="M72 717q0 89 63.5 178.5t173.5 155.5q8 115 95 196.5t206 81.5q80 0 141.5 -30t61.5 -70q0 -37 -13.5 -91.5t-25.5 -68.5h-29q-29 70 -87.5 115t-120.5 45q-50 0 -82.5 -36t-32.5 -91q0 -51 30.5 -100t79.5 -89.5t108 -81.5t118.5 -84.5t108.5 -89.5t79.5 -106t30.5 -125 q0 -102 -67.5 -201t-172.5 -153q-5 -100 -106 -193.5t-234 -93.5q-103 0 -171 46.5t-68 117.5q0 46 10 102.5t20 71.5h31q20 -109 86 -175.5t156 -66.5q65 0 111 43t46 105q0 51 -30 99t-78.5 88.5t-106.5 81.5t-116 85.5t-106.5 92t-78.5 110t-30 131.5zM186 784 q0 -46 26.5 -93t69.5 -88t96 -82.5t109 -84.5t104.5 -86.5t86 -96.5t51.5 -106q129 81 129 207q0 43 -26.5 88t-70.5 85.5t-97.5 82t-109.5 85t-104.5 87t-85.5 95t-49 102.5q-69 -41 -99 -87t-30 -108z" />
<glyph unicode="&#xa8;" horiz-adv-x="815" d="M143 1247q0 42 29.5 72.5t73.5 30.5q39 0 61.5 -26t22.5 -62q0 -42 -29.5 -72.5t-73.5 -30.5q-39 0 -61.5 26.5t-22.5 61.5zM483 1247q0 42 29.5 72.5t73.5 30.5q39 0 61.5 -26t22.5 -62q0 -42 -29.5 -72.5t-73.5 -30.5q-39 0 -61.5 26.5t-22.5 61.5z" />
<glyph unicode="&#xa9;" horiz-adv-x="1419" d="M86 600q0 169 83 313t226.5 228t313.5 84q127 0 243 -49.5t199.5 -133.5t132.5 -199.5t49 -242.5t-49 -242.5t-132.5 -199.5t-199.5 -133.5t-243 -49.5q-170 0 -313.5 84t-226.5 228t-83 313zM172 600q0 -147 71.5 -272t195.5 -198t270 -73t270 73t196 198t72 272 t-72 272t-196 198t-270 73t-270 -73t-195.5 -198t-71.5 -272zM387 588q0 156 97.5 258t256.5 102q42 0 91 -6t78 -12l28 -6l4 -9q-21 -80 -27 -184l-67 -4q2 26 2 49q0 90 -131 90q-93 0 -145 -62t-52 -181q0 -130 50.5 -205.5t150.5 -75.5q70 0 108.5 37t53.5 117l65 4 q-22 -100 -26 -178l-9 -15q-92 -39 -221 -39q-101 0 -171.5 44.5t-103 115t-32.5 160.5z" />
<glyph unicode="&#xaa;" horiz-adv-x="657" d="M61 885q0 39 20 68t54 38l250 62l2 41q0 59 -29.5 92t-83.5 33q-36 0 -75 -15.5t-59 -31.5l-21 -15l-10 4l-19 68q168 96 227 96q99 0 151 -47t52 -125q0 -20 -12 -131.5t-12 -147.5q0 -55 49 -55q16 0 34 6.5t27 13.5l10 7l19 -25q-7 -11 -18 -28t-43 -49.5t-60 -41.5 q-116 0 -125 103l-8 2q-102 -98 -145 -98q-74 0 -124.5 50.5t-50.5 125.5zM193 899q0 -35 23 -58.5t58 -23.5q48 0 105 47l4 127l-156 -45q-34 -9 -34 -47z" />
<glyph unicode="&#xab;" horiz-adv-x="874" d="M41 434v31q196 186 352 354l45 -31l2 -20l-219 -305l219 -318l-2 -20l-45 -31q-69 71 -157 156t-142 134zM381 434v31q196 186 352 354l45 -31l2 -20l-219 -305l219 -318l-2 -20l-45 -31q-69 71 -157 156t-142 134z" />
<glyph unicode="&#xac;" d="M37 498l22 100q308 -2 490 -2q73 0 167 3t152 6l58 3l12 -20q-14 -130 -16 -226l2 -278l-101 -23l-18 13q2 229 2 409l-289 -2l-469 -2z" />
<glyph unicode="&#xad;" horiz-adv-x="663" d="M74 446l12 107l356 41l133 18l15 -18l-10 -111l-492 -53z" />
<glyph unicode="&#xae;" horiz-adv-x="958" d="M61 1038q0 173 122.5 295.5t295.5 122.5t295.5 -122.5t122.5 -295.5t-122.5 -295t-295.5 -122t-295.5 122t-122.5 295zM133 1038q0 -142 101.5 -244t244.5 -102t244.5 102t101.5 244t-101.5 244t-244.5 102t-244.5 -102t-101.5 -244zM287 842l4 43q35 3 43 17t8 61v227 q0 22 -5.5 29.5t-19.5 7.5h-22l-4 8l6 35q61 -2 88 -2h23l63 4q77 0 121.5 -29.5t44.5 -83.5q0 -83 -98 -129l59 -88q44 -65 84 -65l6 -9q0 -17 -10.5 -24.5t-23 -8.5t-46.5 -1q-41 0 -76 65l-59 113h-51q-2 -29 -2 -68t7 -48t42 -9l4 -8l-4 -35q-37 2 -66 2h-24zM424 1065 q6 0 16 -1t23 -2.5t20 -2.5q64 26 64 86q0 78 -107 78q-12 0 -12 -17q-4 -94 -4 -141z" />
<glyph unicode="&#xaf;" horiz-adv-x="815" d="M102 1235l21 92q194 -2 315 -2q45 0 111 3t109 6l44 3l13 -20l-15 -96l-290 -2l-295 -2z" />
<glyph unicode="&#xb0;" horiz-adv-x="618" d="M51 1071q0 107 75.5 182.5t182.5 75.5t182.5 -75.5t75.5 -182.5t-75.5 -182.5t-182.5 -75.5t-182.5 75.5t-75.5 182.5zM137 1071q0 -71 50.5 -121.5t121.5 -50.5t121.5 50.5t50.5 121.5t-50.5 121.5t-121.5 50.5t-121.5 -50.5t-50.5 -121.5z" />
<glyph unicode="&#xb1;" d="M37 -135l22 100q308 -2 490 -2q145 0 280 6q158 4 158 6l12 -20l-16 -105q-195 0 -559.5 -2t-374.5 -2zM37 524l22 101q218 -2 396 -2q0 65 1 195t1 196l104 16l21 -12q-13 -231 -13 -395q73 0 177.5 3t172.5 6l68 3l12 -21l-16 -104q-69 0 -207 -1t-207 -1l2 -377 l-100 -22l-18 12q2 211 2 387l-406 -2z" />
<glyph unicode="&#xb2;" horiz-adv-x="673" d="M49 756l141 157q198 242 195 365q0 92 -104 92q-113 0 -189 -127h-14l-21 84q40 70 114.5 117t145.5 47q100 0 161 -48t61 -126t-65.5 -185.5t-229.5 -297.5l6 -11h168q65 0 91.5 23t43.5 94l78 8q-29 -127 -39 -227l-19 -12q-307 10 -426 10l-86 -14z" />
<glyph unicode="&#xb3;" horiz-adv-x="600" d="M63 819l13 15q59 -17 108 -17q84 0 140.5 37.5t56.5 93.5q0 64 -51 93.5t-162 29.5l-10 10l-8 66l86 18q48 24 78 60.5t30 74.5t-24.5 61t-65.5 23q-34 0 -75 -15.5t-73 -41.5h-14l-20 76q29 22 100 55t131 33q80 0 131 -43.5t51 -110.5q0 -52 -38.5 -100.5t-104.5 -79.5 v-10q178 -49 178 -180q0 -61 -53 -123t-137.5 -102t-169.5 -40q-51 0 -73 27t-24 90z" />
<glyph unicode="&#xb4;" horiz-adv-x="815" d="M264 1110q65 71 142 159.5t121 141.5l44 53l21 -4l78 -84l-2 -22q-172 -131 -344 -287l-19 4z" />
<glyph unicode="&#xb6;" horiz-adv-x="1148" d="M86 911q0 83 30.5 156t85.5 127.5t137 86.5t179 32q57 0 150.5 -4t113.5 -4l256 6l-12 -86l-4 -8q-92 4 -125.5 -16t-38.5 -77q-22 -148 -22 -809q0 -108 -8 -184t-31.5 -145.5t-64.5 -111t-108.5 -65.5t-162.5 -24q-115 0 -195 49t-80 143q0 40 23 93.5t55 89.5h31 q0 -135 53.5 -207t143.5 -72q125 0 165.5 84.5t40.5 308.5v910q-2 21 -9 24.5t-46 3.5q-99 0 -150 -81.5t-51 -219.5q0 -146 33 -244.5t109 -201.5v-31q-102 9 -189 41.5t-157.5 89t-111 145.5t-40.5 201z" />
<glyph unicode="&#xb7;" horiz-adv-x="487" d="M123 461q0 54 35 90.5t92 36.5q55 0 86 -33.5t31 -83.5q0 -54 -35.5 -90.5t-93.5 -36.5q-55 0 -85 34.5t-30 82.5z" />
<glyph unicode="&#xb8;" horiz-adv-x="815" d="M203 -403q0 30 51 114h18q1 -56 31.5 -86.5t81.5 -30.5q41 0 69.5 22t28.5 56q0 33 -47.5 71t-126.5 83l68 221h88l-51 -149q6 -4 35.5 -24t41 -28t35 -27.5t33.5 -33t19.5 -33t9.5 -37.5q0 -77 -78.5 -134.5t-167.5 -57.5q-51 0 -95 20.5t-44 53.5z" />
<glyph unicode="&#xb9;" horiz-adv-x="509" d="M55 1380l6 66q122 15 152 20q57 8 96.5 14.5t51.5 8.5l12 2l10 -31q-24 -21 -34.5 -42.5t-14.5 -61.5q-12 -230 -12 -477q0 -50 13 -69t48 -19l66 4l4 -7l-15 -73q-114 4 -180 4q-34 0 -80.5 -3.5t-75.5 -7.5l-30 -3l8 71q63 5 90 27.5t27 77.5v428q0 44 -15.5 57.5 t-52.5 13.5l-68 -6z" />
<glyph unicode="&#xba;" horiz-adv-x="692" d="M57 995q0 143 88.5 236.5t223.5 93.5q121 0 193.5 -79.5t72.5 -213.5q0 -143 -87 -236.5t-222 -93.5q-121 0 -195 81t-74 212zM201 1038q0 -119 41.5 -185.5t113.5 -66.5q63 0 98 50.5t35 142.5q0 119 -41.5 185.5t-113.5 66.5q-63 0 -98 -50.5t-35 -142.5z" />
<glyph unicode="&#xbb;" horiz-adv-x="874" d="M94 145l219 306l-219 317l2 20l45 31q69 -71 157.5 -156t141.5 -135l54 -49v-30q-197 -187 -353 -355l-45 31zM434 145l219 306l-219 317l2 20l45 31q69 -71 157.5 -156t141.5 -135l54 -49v-30q-197 -187 -353 -355l-45 31z" />
<glyph unicode="&#xbc;" horiz-adv-x="1402" d="M55 1208l6 66q122 15 152 20q57 8 96.5 14.5t51.5 8.5l12 2l10 -31q-24 -21 -34.5 -42.5t-14.5 -61.5q-12 -230 -12 -477q0 -50 13 -69.5t48 -19.5l66 5l4 -7l-15 -73q-114 4 -180 4q-34 0 -80.5 -3.5t-75.5 -7.5l-30 -4l8 72q63 5 90 27.5t27 77.5v428q0 44 -15.5 57.5 t-52.5 13.5l-68 -6zM139 -131q269 408 451 694l524 826l80 -39l10 -29q-356 -531 -536 -819q-82 -132 -192 -306t-180 -282l-69 -109l-77 39zM786 219l5 70l352 481l6 2l80 -12v-449h112l11 -14l-13 -90l-110 4l8 -199l-8 -12l-125 -14l-10 12q8 119 8 215zM905 311h197v256 h-12z" />
<glyph unicode="&#xbd;" horiz-adv-x="1460" d="M55 1208l6 66q122 15 152 20q57 8 96.5 14.5t51.5 8.5l12 2l10 -31q-24 -21 -34.5 -42.5t-14.5 -61.5q-12 -230 -12 -477q0 -50 13 -69.5t48 -19.5l66 5l4 -7l-15 -73q-114 4 -180 4q-34 0 -80.5 -3.5t-75.5 -7.5l-30 -4l8 72q63 5 90 27.5t27 77.5v428q0 44 -15.5 57.5 t-52.5 13.5l-68 -6zM139 -131q269 408 451 694l524 826l80 -39l10 -29q-356 -531 -536 -819q-82 -132 -192 -306t-180 -282l-69 -109l-77 39zM836 37l141 158q197 241 194 364q0 92 -104 92q-112 0 -188 -127h-15l-20 84q40 70 114.5 117t145.5 47q100 0 160.5 -48 t60.5 -126t-65.5 -185.5t-229.5 -297.5l6 -11h168q65 0 91.5 23t43.5 94l78 8q-29 -127 -39 -227l-18 -12q-307 10 -426 10l-86 -14z" />
<glyph unicode="&#xbe;" horiz-adv-x="1411" d="M63 647l13 15q59 -17 108 -17q84 0 140.5 37.5t56.5 93.5q0 64 -51 93.5t-162 29.5l-10 10l-8 66l86 18q48 24 78 60.5t30 74.5t-24.5 61t-65.5 23q-34 0 -75 -15.5t-73 -41.5h-14l-20 76q29 22 100 55t131 33q80 0 131 -43.5t51 -110.5q0 -52 -38.5 -100.5t-104.5 -79.5 v-10q178 -49 178 -180q0 -61 -53 -123t-137.5 -102t-169.5 -40q-51 0 -73 27t-24 90zM147 -131q269 408 451 694l524 826l80 -39l10 -29q-356 -531 -536 -819q-82 -132 -192 -306.5t-179 -282.5l-69 -108l-78 39zM795 219l4 70l352 481l6 2l80 -12v-449h113l10 -14l-12 -90 l-111 4l8 -199l-8 -12l-125 -14l-10 12q8 119 8 215zM913 311h197v256h-12z" />
<glyph unicode="&#xbf;" horiz-adv-x="737" d="M63 -158q0 55 15.5 103t37 80.5t60.5 67.5t69 55t80.5 53t77.5 53l7 18l-43 195l6 16l125 35l18 -8l49 -246l-6 -28l-244 -156q-116 -79 -116 -176q0 -120 110.5 -184.5t304.5 -75.5l4 -23l-67 -108l-29 -9q-191 6 -325 103t-134 235zM315 823q0 54 35.5 90.5t93.5 36.5 q55 0 85 -34t30 -82q0 -54 -35 -90.5t-92 -36.5q-55 0 -86 33t-31 83z" />
<glyph unicode="&#xc0;" horiz-adv-x="1183" d="M-37 -6l17 96q58 6 92 39.5t67 118.5l400 1046l129 35h16q172 -638 326 -1098q25 -77 66 -107.5t130 -37.5l4 -8l-14 -84q-147 6 -217 6t-146.5 -5t-117.5 -10l-41 -5l-6 14l8 80q105 7 143.5 24t38.5 54q0 40 -18 98l-68 223q-49 2 -213 2q-98 0 -223 -16l-76 -213 q-18 -55 -18 -80q0 -44 29 -64t94 -20h116l4 -8l-12 -88q-150 14 -285 14zM291 1612l33 98l18 12q215 -123 408 -223l-13 -49l-16 -10q-96 36 -201.5 74t-163.5 58l-57 19zM373 559h180q73 0 190 10l-161 537h-15z" />
<glyph unicode="&#xc1;" horiz-adv-x="1183" d="M-37 -6l17 96q58 6 92 39.5t67 118.5l400 1046l129 35h16q172 -638 326 -1098q25 -77 66 -107.5t130 -37.5l4 -8l-14 -84q-147 6 -217 6t-146.5 -5t-117.5 -10l-41 -5l-6 14l8 80q105 7 143.5 24t38.5 54q0 40 -18 98l-68 223q-49 2 -213 2q-98 0 -223 -16l-76 -213 q-18 -55 -18 -80q0 -44 29 -64t94 -20h116l4 -8l-12 -88q-150 14 -285 14zM373 559h180q73 0 190 10l-161 537h-15zM473 1499q86 44 188 100t161 89l59 34l18 -12l33 -98l-8 -21q-207 -69 -422 -151l-17 10z" />
<glyph unicode="&#xc2;" horiz-adv-x="1183" d="M-37 -6l17 96q58 6 92 39.5t67 118.5l400 1046l129 35h16q172 -638 326 -1098q25 -77 66 -107.5t130 -37.5l4 -8l-14 -84q-147 6 -217 6t-146.5 -5t-117.5 -10l-41 -5l-6 14l8 80q105 7 143.5 24t38.5 54q0 40 -18 98l-68 223q-49 2 -213 2q-98 0 -223 -16l-76 -213 q-18 -55 -18 -80q0 -44 29 -64t94 -20h116l4 -8l-12 -88q-150 14 -285 14zM307 1505q59 44 130 101t112 92l41 35h28q150 -128 283 -228l-29 -45l-18 -2q-125 72 -250 133q-115 -54 -250 -133l-18 2zM373 559h180q73 0 190 10l-161 537h-15z" />
<glyph unicode="&#xc3;" horiz-adv-x="1183" d="M-37 -6l17 96q58 6 92 39.5t67 118.5l400 1046l129 35h16q172 -638 326 -1098q25 -77 66 -107.5t130 -37.5l4 -8l-14 -84q-147 6 -217 6t-146.5 -5t-117.5 -10l-41 -5l-6 14l8 80q105 7 143.5 24t38.5 54q0 40 -18 98l-68 223q-49 2 -213 2q-98 0 -223 -16l-76 -213 q-18 -55 -18 -80q0 -44 29 -64t94 -20h116l4 -8l-12 -88q-150 14 -285 14zM270 1475v10l156 162l33 8q35 0 153.5 -34t145.5 -34q21 0 53 23t54 46l22 23h12l45 -43v-10l-156 -162l-32 -8q-35 0 -153.5 34t-145.5 34q-22 0 -54 -23t-53 -46l-22 -23h-13zM373 559h180 q73 0 190 10l-161 537h-15z" />
<glyph unicode="&#xc4;" horiz-adv-x="1183" d="M-37 -6l17 96q58 6 92 39.5t67 118.5l400 1046l129 35h16q172 -638 326 -1098q25 -77 66 -107.5t130 -37.5l4 -8l-14 -84q-147 6 -217 6t-146.5 -5t-117.5 -10l-41 -5l-6 14l8 80q105 7 143.5 24t38.5 54q0 40 -18 98l-68 223q-49 2 -213 2q-98 0 -223 -16l-76 -213 q-18 -55 -18 -80q0 -44 29 -64t94 -20h116l4 -8l-12 -88q-150 14 -285 14zM340 1573q0 42 29 72t73 30q39 0 61.5 -26t22.5 -62q0 -42 -29 -72t-73 -30q-39 0 -61.5 26.5t-22.5 61.5zM373 559h180q73 0 190 10l-161 537h-15zM680 1573q0 42 29 72t73 30q39 0 61.5 -26 t22.5 -62q0 -42 -29 -72t-73 -30q-39 0 -61.5 26.5t-22.5 61.5z" />
<glyph unicode="&#xc5;" horiz-adv-x="1183" d="M-37 -6l17 96q58 6 92 39.5t67 118.5l400 1046l129 35h16q172 -638 326 -1098q25 -77 66 -107.5t130 -37.5l4 -8l-14 -84q-147 6 -217 6t-146.5 -5t-117.5 -10l-41 -5l-6 14l8 80q105 7 143.5 24t38.5 54q0 40 -18 98l-68 223q-49 2 -213 2q-98 0 -223 -16l-76 -213 q-18 -55 -18 -80q0 -44 29 -64t94 -20h116l4 -8l-12 -88q-150 14 -285 14zM373 559h180q73 0 190 10l-161 537h-15zM438 1544q0 75 47.5 123.5t124.5 48.5q79 0 118.5 -45t39.5 -110q0 -74 -47 -127.5t-127 -53.5q-73 0 -114.5 45t-41.5 119zM504 1556q0 -49 32.5 -73.5 t71.5 -24.5q90 0 90 80q0 44 -27 71t-77 27q-44 0 -67 -21.5t-23 -58.5z" />
<glyph unicode="&#xc6;" horiz-adv-x="1658" d="M-20 63q68 72 129 185l505 936q-8 33 -51 33l-69 -5l-5 9l15 90q0 1 37.5 -0.5t120.5 -3.5t167 -2q447 0 611 24l6 -12q-35 -152 -47 -340l-99 -8q5 59 5 88q0 27 -1.5 44.5t-8 34t-15 26t-27 18t-39.5 12t-57.5 6.5t-75 3.5t-98.5 0.5q-95 0 -118.5 -10t-24.5 -53 l63 -467l242 22l188 27l8 -10l-26 -109l-176 -6l-224 -18l58 -347q12 -78 50 -108.5t122 -30.5q80 0 128.5 2.5t90.5 13t63 25t39 45.5t26.5 67t16.5 97l90 10l7 -10q-38 -170 -56 -344l-10 -12q0 -1 -91.5 2.5t-230.5 7.5t-229 4h-69q-70 0 -146 -5t-117 -10l-41 -5l-4 14 l4 80q122 9 160.5 29t38.5 75q0 30 -14 135l-37 252l-203 -16l-186 -21l-146 -282q-32 -60 -32 -94q0 -70 112 -70h117l-10 -96q-152 14 -283 14l-139 -8zM430 635l172 10l150 12l-62 447h-18z" />
<glyph unicode="&#xc7;" horiz-adv-x="1288" d="M82 608q0 205 92 370t255.5 258t367.5 93q76 0 165 -12.5t140 -24.5l51 -12l8 -12q-39 -154 -51 -342l-98 -8q6 55 6 100q0 190 -301 190q-206 0 -328.5 -144t-122.5 -388q0 -270 128.5 -434t340.5 -164q140 0 225 78.5t123 244.5l99 9q-42 -187 -56 -334l-12 -19 q-6 -3 -18 -8t-50.5 -17.5t-79.5 -23t-102.5 -20t-122.5 -11.5l-26 -79q6 -4 35.5 -24t41 -28t35 -27.5t33.5 -33t19.5 -33t9.5 -37.5q0 -77 -78.5 -134.5t-167.5 -57.5q-51 0 -95 20.5t-44 53.5q0 30 51 114h18q1 -56 32 -86.5t81 -30.5q41 0 69.5 22t28.5 56 q0 33 -47.5 71t-126.5 83l45 151q-263 12 -418 181.5t-155 449.5z" />
<glyph unicode="&#xc8;" horiz-adv-x="1210" d="M119 -20l12 94q92 12 126 48t34 124l2 860q0 66 -15 88.5t-61 22.5l-70 -5l-4 9l15 90q161 -6 284 -6q435 0 615 24l6 -12q-35 -152 -47 -340l-98 -8q4 59 4 88q0 37 -2.5 57.5t-15.5 39t-30 26.5t-57 14t-85 7t-124 1q-100 0 -121 -11.5t-22 -68.5l-16 -397q21 0 99 -1 t111 -1t95.5 5.5t108.5 11.5l46 5l9 -10l-29 -121q-176 7 -287 7q-70 0 -158 -15q-8 -295 -8 -391q0 -45 4 -66.5t22.5 -36t47.5 -17.5t88 -3q88 0 140.5 2.5t98 13t68.5 25t42.5 45.5t28 67t17.5 97l90 10l7 -10q-38 -170 -56 -344l-10 -12q-426 14 -621 14q-69 0 -140 -5 t-107 -10zM322 1612l32 98l19 12q214 -123 407 -223l-12 -49l-16 -10q-96 36 -201.5 74t-162.5 58l-58 19z" />
<glyph unicode="&#xc9;" horiz-adv-x="1210" d="M119 -20l12 94q92 12 126 48t34 124l2 860q0 66 -15 88.5t-61 22.5l-70 -5l-4 9l15 90q161 -6 284 -6q435 0 615 24l6 -12q-35 -152 -47 -340l-98 -8q4 59 4 88q0 37 -2.5 57.5t-15.5 39t-30 26.5t-57 14t-85 7t-124 1q-100 0 -121 -11.5t-22 -68.5l-16 -397q21 0 99 -1 t111 -1t95.5 5.5t108.5 11.5l46 5l9 -10l-29 -121q-176 7 -287 7q-70 0 -158 -15q-8 -295 -8 -391q0 -45 4 -66.5t22.5 -36t47.5 -17.5t88 -3q88 0 140.5 2.5t98 13t68.5 25t42.5 45.5t28 67t17.5 97l90 10l7 -10q-38 -170 -56 -344l-10 -12q-426 14 -621 14q-69 0 -140 -5 t-107 -10zM504 1499q86 44 187.5 100t160.5 89l59 34l19 -12l33 -98l-9 -21q-207 -69 -422 -151l-16 10z" />
<glyph unicode="&#xca;" horiz-adv-x="1210" d="M119 -20l12 94q92 12 126 48t34 124l2 860q0 66 -15 88.5t-61 22.5l-70 -5l-4 9l15 90q161 -6 284 -6q435 0 615 24l6 -12q-35 -152 -47 -340l-98 -8q4 59 4 88q0 37 -2.5 57.5t-15.5 39t-30 26.5t-57 14t-85 7t-124 1q-100 0 -121 -11.5t-22 -68.5l-16 -397q21 0 99 -1 t111 -1t95.5 5.5t108.5 11.5l46 5l9 -10l-29 -121q-176 7 -287 7q-70 0 -158 -15q-8 -295 -8 -391q0 -45 4 -66.5t22.5 -36t47.5 -17.5t88 -3q88 0 140.5 2.5t98 13t68.5 25t42.5 45.5t28 67t17.5 97l90 10l7 -10q-38 -170 -56 -344l-10 -12q-426 14 -621 14q-69 0 -140 -5 t-107 -10zM338 1505q59 44 130 101t112 92l41 35h28q150 -128 283 -228l-29 -45l-18 -2q-125 72 -250 133q-115 -54 -250 -133l-18 2z" />
<glyph unicode="&#xcb;" horiz-adv-x="1210" d="M119 -20l12 94q92 12 126 48t34 124l2 860q0 66 -15 88.5t-61 22.5l-70 -5l-4 9l15 90q161 -6 284 -6q435 0 615 24l6 -12q-35 -152 -47 -340l-98 -8q4 59 4 88q0 37 -2.5 57.5t-15.5 39t-30 26.5t-57 14t-85 7t-124 1q-100 0 -121 -11.5t-22 -68.5l-16 -397q21 0 99 -1 t111 -1t95.5 5.5t108.5 11.5l46 5l9 -10l-29 -121q-176 7 -287 7q-70 0 -158 -15q-8 -295 -8 -391q0 -45 4 -66.5t22.5 -36t47.5 -17.5t88 -3q88 0 140.5 2.5t98 13t68.5 25t42.5 45.5t28 67t17.5 97l90 10l7 -10q-38 -170 -56 -344l-10 -12q-426 14 -621 14q-69 0 -140 -5 t-107 -10zM371 1573q0 42 29 72t73 30q39 0 61.5 -26t22.5 -62q0 -42 -29 -72t-73 -30q-39 0 -61.5 26.5t-22.5 61.5zM711 1573q0 42 29 72t73 30q39 0 61.5 -26t22.5 -62q0 -42 -29 -72t-73 -30q-39 0 -61.5 26.5t-22.5 61.5z" />
<glyph unicode="&#xcc;" horiz-adv-x="739" d="M63 1612l33 98l19 12q214 -123 407 -223l-12 -49l-16 -10q-96 36 -201.5 74t-162.5 58l-58 19zM115 -25l12 95q97 19 130.5 54.5t33.5 121.5l2 860q0 65 -15.5 88t-60.5 23l-86 -5l-4 9l14 90q160 -6 244 -6q42 0 101 4.5t97 8.5l38 5l-9 -92q-85 -10 -114.5 -34 t-32.5 -83q-29 -615 -29 -885q0 -83 18 -111t72 -28l109 6l4 -8l-18 -94q-173 6 -269 6q-46 0 -105.5 -6t-95.5 -12z" />
<glyph unicode="&#xcd;" horiz-adv-x="739" d="M115 -25l12 95q97 19 130.5 54.5t33.5 121.5l2 860q0 65 -15.5 88t-60.5 23l-86 -5l-4 9l14 90q160 -6 244 -6q42 0 101 4.5t97 8.5l38 5l-9 -92q-85 -10 -114.5 -34t-32.5 -83q-29 -615 -29 -885q0 -83 18 -111t72 -28l109 6l4 -8l-18 -94q-173 6 -269 6 q-46 0 -105.5 -6t-95.5 -12zM246 1499q86 44 187.5 100t160.5 89l59 34l19 -12l33 -98l-9 -21q-207 -69 -422 -151l-16 10z" />
<glyph unicode="&#xce;" horiz-adv-x="739" d="M80 1505q59 44 129.5 101t111.5 92l41 35h29q150 -128 283 -228l-29 -45l-18 -2q-125 72 -250 133q-115 -54 -250 -133l-18 2zM115 -25l12 95q97 19 130.5 54.5t33.5 121.5l2 860q0 65 -15.5 88t-60.5 23l-86 -5l-4 9l14 90q160 -6 244 -6q42 0 101 4.5t97 8.5l38 5 l-9 -92q-85 -10 -114.5 -34t-32.5 -83q-29 -615 -29 -885q0 -83 18 -111t72 -28l109 6l4 -8l-18 -94q-173 6 -269 6q-46 0 -105.5 -6t-95.5 -12z" />
<glyph unicode="&#xcf;" horiz-adv-x="739" d="M113 1573q0 42 29 72t73 30q39 0 61.5 -26t22.5 -62q0 -42 -29 -72t-73 -30q-39 0 -61.5 26.5t-22.5 61.5zM115 -25l12 95q97 19 130.5 54.5t33.5 121.5l2 860q0 65 -15.5 88t-60.5 23l-86 -5l-4 9l14 90q160 -6 244 -6q42 0 101 4.5t97 8.5l38 5l-9 -92 q-85 -10 -114.5 -34t-32.5 -83q-29 -615 -29 -885q0 -83 18 -111t72 -28l109 6l4 -8l-18 -94q-173 6 -269 6q-46 0 -105.5 -6t-95.5 -12zM453 1573q0 42 29 72t73 30q39 0 61.5 -26t22.5 -62q0 -42 -29 -72t-73 -30q-39 0 -61.5 26.5t-22.5 61.5z" />
<glyph unicode="&#xd0;" horiz-adv-x="1460" d="M18 637l15 65h272l2 404q0 66 -15 88.5t-61 22.5l-69 -5l-4 9l14 90q137 -6 215 -6l311 8q294 0 484 -173t190 -440q0 -150 -55 -285t-149.5 -231t-226 -152.5t-277.5 -56.5q-191 25 -295 25q-45 0 -104 -6t-95 -12l-37 -7l12 95q46 9 72 18.5t45.5 24.5t27.5 44t11.5 65 t3.5 100v301h-272zM453 268q0 -112 52 -150t206 -38q221 0 348 152.5t127 418.5q0 270 -163.5 415.5t-465.5 145.5q-43 0 -58 -8.5t-16 -36.5l-18 -465h348l10 -14l-12 -65h-348z" />
<glyph unicode="&#xd1;" horiz-adv-x="1472" d="M111 1239l16 76q119 -10 176 -10q30 0 64.5 2t53.5 4l19 2q151 -235 323 -489t269 -390l96 -137h11v829q0 88 -68 88l-78 -2l-4 9l19 92q124 -8 194 -8q38 0 89 4t83 8l31 4l-10 -94q-71 -9 -105 -39.5t-35 -89.5l-28 -1151l-60 -29q-177 277 -367.5 559t-291.5 426 l-102 144h-11l-10 -875q0 -46 14.5 -64t49.5 -18l104 2l4 -8l-18 -92q-129 8 -217 8q-36 0 -84 -4t-78 -8l-29 -4l10 94q64 8 95 37.5t32 91.5l27 895q0 63 -37.5 89.5t-140.5 37.5zM426 1475v10l156 162l32 8q35 0 153.5 -34t145.5 -34q21 0 53 23t54 46l22 23h13l45 -43 v-10l-156 -162l-33 -8q-35 0 -153.5 34t-145.5 34q-22 0 -54 -23t-54 -46l-21 -23h-12z" />
<glyph unicode="&#xd2;" horiz-adv-x="1417" d="M82 608q0 200 89 365.5t243.5 260.5t341.5 95q169 0 301 -79.5t205 -223.5t73 -328q0 -151 -53 -285t-144.5 -230t-218.5 -152t-270 -56q-252 0 -409.5 176t-157.5 457zM258 674q0 -262 127 -428t328 -166q195 0 317.5 148t122.5 384q0 263 -130 428.5t-337 165.5 q-190 0 -309 -148t-119 -384zM387 1612l33 98l18 12q215 -123 408 -223l-12 -49l-17 -10q-96 36 -201.5 74t-163.5 58l-57 19z" />
<glyph unicode="&#xd3;" horiz-adv-x="1417" d="M82 608q0 200 89 365.5t243.5 260.5t341.5 95q169 0 301 -79.5t205 -223.5t73 -328q0 -151 -53 -285t-144.5 -230t-218.5 -152t-270 -56q-252 0 -409.5 176t-157.5 457zM258 674q0 -262 127 -428t328 -166q195 0 317.5 148t122.5 384q0 263 -130 428.5t-337 165.5 q-190 0 -309 -148t-119 -384zM569 1499q86 44 188 100t161 89l59 34l18 -12l33 -98l-8 -21q-207 -69 -422 -151l-16 10z" />
<glyph unicode="&#xd4;" horiz-adv-x="1417" d="M82 608q0 200 89 365.5t243.5 260.5t341.5 95q169 0 301 -79.5t205 -223.5t73 -328q0 -151 -53 -285t-144.5 -230t-218.5 -152t-270 -56q-252 0 -409.5 176t-157.5 457zM258 674q0 -262 127 -428t328 -166q195 0 317.5 148t122.5 384q0 263 -130 428.5t-337 165.5 q-190 0 -309 -148t-119 -384zM403 1505q59 44 130 101t112 92l41 35h29q149 -128 282 -228l-28 -45l-19 -2q-125 72 -250 133q-110 -52 -249 -133l-19 2z" />
<glyph unicode="&#xd5;" horiz-adv-x="1417" d="M82 608q0 200 89 365.5t243.5 260.5t341.5 95q169 0 301 -79.5t205 -223.5t73 -328q0 -151 -53 -285t-144.5 -230t-218.5 -152t-270 -56q-252 0 -409.5 176t-157.5 457zM258 674q0 -262 127 -428t328 -166q195 0 317.5 148t122.5 384q0 263 -130 428.5t-337 165.5 q-190 0 -309 -148t-119 -384zM367 1475v10l155 162l33 8q35 0 153.5 -34t145.5 -34q21 0 53 23t54 46l22 23h12l45 -43v-10l-155 -162l-33 -8q-35 0 -153.5 34t-145.5 34q-22 0 -54 -23t-53 -46l-22 -23h-12z" />
<glyph unicode="&#xd6;" horiz-adv-x="1417" d="M82 608q0 200 89 365.5t243.5 260.5t341.5 95q169 0 301 -79.5t205 -223.5t73 -328q0 -151 -53 -285t-144.5 -230t-218.5 -152t-270 -56q-252 0 -409.5 176t-157.5 457zM258 674q0 -262 127 -428t328 -166q195 0 317.5 148t122.5 384q0 263 -130 428.5t-337 165.5 q-190 0 -309 -148t-119 -384zM436 1573q0 42 29.5 72t73.5 30q39 0 61.5 -26t22.5 -62q0 -42 -29.5 -72t-73.5 -30q-39 0 -61.5 26.5t-22.5 61.5zM776 1573q0 42 29.5 72t73.5 30q39 0 61.5 -26t22.5 -62q0 -42 -29.5 -72t-73.5 -30q-39 0 -61.5 26.5t-22.5 61.5z" />
<glyph unicode="&#xd7;" d="M139 829l4 23l88 53q160 -162 287 -289q51 53 122.5 129t117.5 125l45 50l22 -7l64 -86l-291 -292q53 -52 127 -121.5t122 -112.5l48 -43l-6 -25l-86 -61l-285 283l-287 -291l-22 6l-55 86q155 152 282 279z" />
<glyph unicode="&#xd8;" horiz-adv-x="1417" d="M82 608q0 200 89 365.5t243.5 260.5t341.5 95q122 0 223 -43l86 164l59 -14l6 -25l-83 -156q135 -77 211.5 -223t76.5 -334q0 -151 -53 -285t-144.5 -230t-218.5 -152t-270 -56q-127 0 -248 54l-122 -230l-56 13l-4 20l121 231q-122 80 -190 221.5t-68 323.5zM258 674 q0 -147 41 -266.5t117 -198.5l489 936q-99 61 -219 61q-190 0 -309 -148t-119 -384zM469 160q110 -80 244 -80q195 0 317.5 148t122.5 384q0 158 -49.5 284.5t-138.5 205.5z" />
<glyph unicode="&#xd9;" horiz-adv-x="1394" d="M72 1221l14 90q153 -6 231 -6q39 0 93 4.5t88 8.5l34 5l-8 -92q-76 -10 -102 -34t-29 -83l-16 -602q0 -203 88 -311.5t254 -108.5q167 0 255.5 88.5t88.5 257.5l-12 668q-5 71 -18.5 91t-57.5 20l-88 -5l-4 9l14 90q153 -6 231 -6q39 0 89 4.5t80 8.5l30 5l-8 -92 q-90 -12 -115.5 -33t-25.5 -84v-688q0 -215 -133 -333t-375 -118q-215 0 -332 118t-117 335v678q0 66 -15 88.5t-61 22.5l-69 -5zM397 1612l33 98l19 12q214 -123 407 -223l-12 -49l-17 -10q-96 36 -201 74t-162 58l-58 19z" />
<glyph unicode="&#xda;" horiz-adv-x="1394" d="M72 1221l14 90q153 -6 231 -6q39 0 93 4.5t88 8.5l34 5l-8 -92q-76 -10 -102 -34t-29 -83l-16 -602q0 -203 88 -311.5t254 -108.5q167 0 255.5 88.5t88.5 257.5l-12 668q-5 71 -18.5 91t-57.5 20l-88 -5l-4 9l14 90q153 -6 231 -6q39 0 89 4.5t80 8.5l30 5l-8 -92 q-90 -12 -115.5 -33t-25.5 -84v-688q0 -215 -133 -333t-375 -118q-215 0 -332 118t-117 335v678q0 66 -15 88.5t-61 22.5l-69 -5zM580 1499q86 44 187.5 100t160.5 89l59 34l19 -12l32 -98l-8 -21q-207 -69 -422 -151l-16 10z" />
<glyph unicode="&#xdb;" horiz-adv-x="1394" d="M72 1221l14 90q153 -6 231 -6q39 0 93 4.5t88 8.5l34 5l-8 -92q-76 -10 -102 -34t-29 -83l-16 -602q0 -203 88 -311.5t254 -108.5q167 0 255.5 88.5t88.5 257.5l-12 668q-5 71 -18.5 91t-57.5 20l-88 -5l-4 9l14 90q153 -6 231 -6q39 0 89 4.5t80 8.5l30 5l-8 -92 q-90 -12 -115.5 -33t-25.5 -84v-688q0 -215 -133 -333t-375 -118q-215 0 -332 118t-117 335v678q0 66 -15 88.5t-61 22.5l-69 -5zM414 1505q59 44 129.5 101t111.5 92l41 35h29q150 -128 283 -228l-29 -45l-18 -2q-125 72 -250 133q-115 -54 -250 -133l-19 2z" />
<glyph unicode="&#xdc;" horiz-adv-x="1394" d="M72 1221l14 90q153 -6 231 -6q39 0 93 4.5t88 8.5l34 5l-8 -92q-76 -10 -102 -34t-29 -83l-16 -602q0 -203 88 -311.5t254 -108.5q167 0 255.5 88.5t88.5 257.5l-12 668q-5 71 -18.5 91t-57.5 20l-88 -5l-4 9l14 90q153 -6 231 -6q39 0 89 4.5t80 8.5l30 5l-8 -92 q-90 -12 -115.5 -33t-25.5 -84v-688q0 -215 -133 -333t-375 -118q-215 0 -332 118t-117 335v678q0 66 -15 88.5t-61 22.5l-69 -5zM446 1573q0 42 29.5 72t73.5 30q39 0 61.5 -26t22.5 -62q0 -42 -29.5 -72t-73.5 -30q-39 0 -61.5 26.5t-22.5 61.5zM786 1573q0 42 29.5 72 t73.5 30q39 0 61.5 -26t22.5 -62q0 -42 -29.5 -72t-73.5 -30q-39 0 -61.5 26.5t-22.5 61.5z" />
<glyph unicode="&#xdd;" horiz-adv-x="1101" d="M-39 1231l12 80q132 -6 226 -6q51 0 123.5 4t119.5 8l47 4l7 -14l-7 -72q-91 -7 -123 -22.5t-32 -51.5q0 -26 57 -158t113.5 -251t58.5 -119h10l234 434q33 61 33 102q0 53 -129 62l-4 8l12 80q151 -14 227 -14q36 0 83 2t77 4l29 2l8 -15l-13 -75q-93 -18 -132.5 -57 t-113.5 -171q-14 -25 -22 -39l-205 -360q-28 -48 -34.5 -105t-9.5 -217q0 -10 -0.5 -15t-0.5 -14v-16q-2 -79 17.5 -109t72.5 -30l101 6l4 -8l-19 -94q-170 6 -260 6q-45 0 -103.5 -6t-94.5 -12l-35 -7l12 95q56 11 87 24.5t48 41t21 60t4 95.5v90q0 63 -12 111.5t-47 119.5 l-185 375q-60 123 -79 150q-40 57 -108 75q-29 7 -71 11zM453 1499q86 44 187.5 100t160.5 89l59 34l19 -12l32 -98l-8 -21q-207 -69 -422 -151l-16 10z" />
<glyph unicode="&#xde;" horiz-adv-x="1112" d="M115 -25l12 95q97 19 130.5 54.5t33.5 121.5l2 860q0 65 -15.5 88t-60.5 23l-86 -5l-4 9l14 90q160 -6 244 -6q42 0 101 4.5t97 8.5l38 5l-9 -92q-85 -10 -114.5 -34t-32.5 -83q-1 -16 -2.5 -36.5t-2 -26.5t0.5 -21h168q212 0 325 -86.5t113 -247.5q0 -103 -67 -194 t-179 -145t-239 -54h-146v-74q0 -83 18 -111t72 -28l109 6l4 -8l-18 -94q-173 6 -269 6q-46 0 -105.5 -6t-95.5 -12zM438 428q37 -12 101 -23t108 -12q248 30 248 264q0 141 -93 207t-292 66q-34 0 -43 -3t-12 -14q-14 -332 -17 -485z" />
<glyph unicode="&#xdf;" horiz-adv-x="1210" d="M84 842l14 69l123 23q0 277 125 431.5t348 154.5q121 0 216.5 -76.5t95.5 -173.5q0 -64 -26.5 -120t-64.5 -96.5t-76 -77.5t-64.5 -78.5t-26.5 -84.5q0 -36 24.5 -69.5t63.5 -61.5t86.5 -57t95 -61.5t86.5 -69t63.5 -86.5t24.5 -107q0 -131 -109 -228.5t-256 -97.5 q-100 0 -168.5 31.5t-68.5 77.5q0 29 26.5 87.5t51.5 88.5h28q0 -92 51.5 -143t143.5 -51q61 0 108.5 52t47.5 118q0 43 -25 82t-64.5 70t-87.5 61t-96.5 63t-88 69.5t-64.5 86t-25 106.5q0 52 27.5 101.5t67 88.5t79 76t67 79.5t27.5 84.5q0 89 -70 142t-190 53 q-117 0 -173.5 -92t-57.5 -287l-13 -819q-2 -54 19 -83.5t61 -29.5l97 2l4 -8l-15 -86q-141 4 -202 4q-51 0 -108.5 -2t-89.5 -4l-32 -2l10 80q71 9 94 40t23 109v524q-3 46 -30 63.5t-99 20.5z" />
<glyph unicode="&#xe0;" horiz-adv-x="954" d="M84 238q0 60 30 105t79 58l387 107l4 90q0 103 -47.5 160t-133.5 57q-37 0 -76 -10.5t-68 -25.5t-52.5 -30t-36.5 -25l-12 -11l-11 6l-24 88q28 16 71 39.5t133.5 63.5t129.5 40q134 0 209 -70t75 -194q0 -31 -18 -218t-18 -253q0 -44 21.5 -69t61.5 -25q29 0 60 12.5 t47 25.5l16 13l29 -33q-3 -5 -9 -14t-24.5 -33t-38 -44.5t-48.5 -41.5t-58 -31q-167 0 -182 166l-9 2q-74 -74 -134 -116.5t-91 -42.5q-114 0 -188 72t-74 182zM188 1374l78 84l21 4q160 -192 307 -352l-41 -39l-18 -4q-76 69 -162.5 140.5t-134.5 108.5l-48 36zM240 260 q0 -59 40 -98t101 -39q38 0 90.5 27.5t95.5 70.5l8 209l-276 -84q-59 -18 -59 -86z" />
<glyph unicode="&#xe1;" horiz-adv-x="954" d="M84 238q0 60 30 105t79 58l387 107l4 90q0 103 -47.5 160t-133.5 57q-37 0 -76 -10.5t-68 -25.5t-52.5 -30t-36.5 -25l-12 -11l-11 6l-24 88q28 16 71 39.5t133.5 63.5t129.5 40q134 0 209 -70t75 -194q0 -31 -18 -218t-18 -253q0 -44 21.5 -69t61.5 -25q29 0 60 12.5 t47 25.5l16 13l29 -33q-3 -5 -9 -14t-24.5 -33t-38 -44.5t-48.5 -41.5t-58 -31q-167 0 -182 166l-9 2q-74 -74 -134 -116.5t-91 -42.5q-114 0 -188 72t-74 182zM240 260q0 -59 40 -98t101 -39q38 0 90.5 27.5t95.5 70.5l8 209l-276 -84q-59 -18 -59 -86zM305 1110 q65 71 142 159.5t121 141.5l44 53l21 -4l78 -84l-2 -22q-172 -131 -344 -287l-19 4z" />
<glyph unicode="&#xe2;" horiz-adv-x="954" d="M84 238q0 60 30 105t79 58l387 107l4 90q0 103 -47.5 160t-133.5 57q-37 0 -76 -10.5t-68 -25.5t-52.5 -30t-36.5 -25l-12 -11l-11 6l-24 88q28 16 71 39.5t133.5 63.5t129.5 40q134 0 209 -70t75 -194q0 -31 -18 -218t-18 -253q0 -44 21.5 -69t61.5 -25q29 0 60 12.5 t47 25.5l16 13l29 -33q-3 -5 -9 -14t-24.5 -33t-38 -44.5t-48.5 -41.5t-58 -31q-167 0 -182 166l-9 2q-74 -74 -134 -116.5t-91 -42.5q-114 0 -188 72t-74 182zM150 1126q59 62 129.5 140.5t111.5 125.5l41 48h29q149 -175 282 -314l-28 -45l-19 -2q-43 38 -89 74.5 t-99.5 77.5t-61.5 47q-158 -120 -249 -199l-19 2zM240 260q0 -59 40 -98t101 -39q38 0 90.5 27.5t95.5 70.5l8 209l-276 -84q-59 -18 -59 -86z" />
<glyph unicode="&#xe3;" horiz-adv-x="954" d="M84 238q0 60 30 105t79 58l387 107l4 90q0 103 -47.5 160t-133.5 57q-37 0 -76 -10.5t-68 -25.5t-52.5 -30t-36.5 -25l-12 -11l-11 6l-24 88q28 16 71 39.5t133.5 63.5t129.5 40q134 0 209 -70t75 -194q0 -31 -18 -218t-18 -253q0 -44 21.5 -69t61.5 -25q29 0 60 12.5 t47 25.5l16 13l29 -33q-3 -5 -9 -14t-24.5 -33t-38 -44.5t-48.5 -41.5t-58 -31q-167 0 -182 166l-9 2q-74 -74 -134 -116.5t-91 -42.5q-114 0 -188 72t-74 182zM109 1171v11l155 182l33 8q35 0 153.5 -33.5t145.5 -33.5q21 0 53 28t54 56l22 28h12l45 -43v-10l-155 -182 l-33 -8q-35 0 -153.5 33.5t-145.5 33.5q-22 0 -54 -28.5t-53 -56.5l-22 -28h-12zM240 260q0 -59 40 -98t101 -39q38 0 90.5 27.5t95.5 70.5l8 209l-276 -84q-59 -18 -59 -86z" />
<glyph unicode="&#xe4;" horiz-adv-x="954" d="M84 238q0 60 30 105t79 58l387 107l4 90q0 103 -47.5 160t-133.5 57q-37 0 -76 -10.5t-68 -25.5t-52.5 -30t-36.5 -25l-12 -11l-11 6l-24 88q28 16 71 39.5t133.5 63.5t129.5 40q134 0 209 -70t75 -194q0 -31 -18 -218t-18 -253q0 -44 21.5 -69t61.5 -25q29 0 60 12.5 t47 25.5l16 13l29 -33q-3 -5 -9 -14t-24.5 -33t-38 -44.5t-48.5 -41.5t-58 -31q-167 0 -182 166l-9 2q-74 -74 -134 -116.5t-91 -42.5q-114 0 -188 72t-74 182zM180 1247q0 42 29.5 72.5t73.5 30.5q39 0 61.5 -26t22.5 -62q0 -42 -29.5 -72.5t-73.5 -30.5q-39 0 -61.5 26.5 t-22.5 61.5zM240 260q0 -59 40 -98t101 -39q38 0 90.5 27.5t95.5 70.5l8 209l-276 -84q-59 -18 -59 -86zM520 1247q0 42 29.5 72.5t73.5 30.5q39 0 61.5 -26t22.5 -62q0 -42 -29.5 -72.5t-73.5 -30.5q-39 0 -61.5 26.5t-22.5 61.5z" />
<glyph unicode="&#xe5;" horiz-adv-x="954" d="M84 238q0 60 30 105t79 58l387 107l4 90q0 103 -47.5 160t-133.5 57q-37 0 -76 -10.5t-68 -25.5t-52.5 -30t-36.5 -25l-12 -11l-11 6l-24 88q28 16 71 39.5t133.5 63.5t129.5 40q134 0 209 -70t75 -194q0 -31 -18 -218t-18 -253q0 -44 21.5 -69t61.5 -25q29 0 60 12.5 t47 25.5l16 13l29 -33q-3 -5 -9 -14t-24.5 -33t-38 -44.5t-48.5 -41.5t-58 -31q-167 0 -182 166l-9 2q-74 -74 -134 -116.5t-91 -42.5q-114 0 -188 72t-74 182zM240 260q0 -59 40 -98t101 -39q38 0 90.5 27.5t95.5 70.5l8 209l-276 -84q-59 -18 -59 -86zM281 1278 q0 75 47.5 123.5t124.5 48.5q79 0 118 -45.5t39 -110.5q0 -74 -47 -127t-127 -53q-73 0 -114 45t-41 119zM346 1290q0 -49 33 -73.5t72 -24.5q90 0 90 80q0 44 -27.5 71t-77.5 27q-44 0 -67 -21.5t-23 -58.5z" />
<glyph unicode="&#xe6;" horiz-adv-x="1337" d="M61 238q0 60 29.5 103.5t79.5 57.5l391 107l2 102q0 103 -45 158t-131 55q-59 0 -122 -27t-97 -54l-33 -27l-10 6l-25 88q28 16 71.5 39.5t134 63.5t128.5 40q201 0 254 -164q60 78 141.5 121t169.5 43q131 0 206 -77.5t75 -213.5l-4 -38l-19 -29l-552 -131 q11 -158 95 -256.5t210 -98.5q55 0 118 18t98 36l36 18l12 -4l22 -59q-8 -6 -21 -15.5t-52.5 -33.5t-76 -42.5t-82.5 -33.5t-81 -15q-129 0 -227 58t-148 162q-172 -183 -284 -211q-114 0 -188.5 72t-74.5 182zM211 260q0 -57 41 -100t96 -43q88 0 236 139q-25 80 -25 174 l-283 -84q-32 -9 -48.5 -32t-16.5 -54zM702 537l359 102q41 12 41 37q0 68 -43 114t-107 46q-112 0 -181 -78.5t-69 -206.5v-14z" />
<glyph unicode="&#xe7;" horiz-adv-x="868" d="M74 428q0 221 136 371.5t337 150.5q58 0 118 -10t91 -20l30 -9l7 -14q-37 -123 -43 -283l-84 -6v64q0 75 -46.5 121.5t-121.5 46.5q-126 0 -193 -88.5t-67 -253.5q0 -179 74.5 -282t203.5 -103q51 0 109 16.5t91 33.5l32 17l12 -4l22 -63q-18 -14 -47.5 -34.5t-99.5 -58 t-115 -43.5l-26 -79q6 -4 35.5 -24t41 -28t35 -27.5t33.5 -33t19.5 -33t9.5 -37.5q0 -77 -78.5 -134.5t-167.5 -57.5q-51 0 -95 20.5t-44 53.5q0 30 51 114h18q1 -56 31.5 -86.5t81.5 -30.5q41 0 69.5 22t28.5 56q0 33 -47.5 71t-126.5 83l47 154q-168 20 -265 140t-97 308z " />
<glyph unicode="&#xe8;" horiz-adv-x="917" d="M74 428q0 138 61.5 258.5t166 192t224.5 71.5q151 0 228 -75.5t77 -221.5q0 -23 -3 -48t-6 -39l-3 -13l-26 -25h-566v-32q0 -172 83 -276.5t220 -104.5q56 0 119 15.5t98 31.5l35 16l13 -4l22 -59q-8 -6 -21.5 -15.5t-53 -33.5t-76 -42.5t-82.5 -33.5t-80 -15 q-193 0 -311.5 125t-118.5 328zM236 604l370 19q31 3 41 13.5t10 41.5q0 82 -44 125t-126 43q-96 0 -164 -65t-87 -177zM238 1374l77 84l21 4q160 -192 307 -352l-41 -39l-18 -4q-76 69 -162 140.5t-134 108.5l-48 36z" />
<glyph unicode="&#xe9;" horiz-adv-x="917" d="M74 428q0 138 61.5 258.5t166 192t224.5 71.5q151 0 228 -75.5t77 -221.5q0 -23 -3 -48t-6 -39l-3 -13l-26 -25h-566v-32q0 -172 83 -276.5t220 -104.5q56 0 119 15.5t98 31.5l35 16l13 -4l22 -59q-8 -6 -21.5 -15.5t-53 -33.5t-76 -42.5t-82.5 -33.5t-80 -15 q-193 0 -311.5 125t-118.5 328zM236 604l370 19q31 3 41 13.5t10 41.5q0 82 -44 125t-126 43q-96 0 -164 -65t-87 -177zM354 1110q65 71 142 159.5t122 141.5l44 53l20 -4l78 -84l-2 -22q-172 -131 -344 -287l-19 4z" />
<glyph unicode="&#xea;" horiz-adv-x="917" d="M74 428q0 138 61.5 258.5t166 192t224.5 71.5q151 0 228 -75.5t77 -221.5q0 -23 -3 -48t-6 -39l-3 -13l-26 -25h-566v-32q0 -172 83 -276.5t220 -104.5q56 0 119 15.5t98 31.5l35 16l13 -4l22 -59q-8 -6 -21.5 -15.5t-53 -33.5t-76 -42.5t-82.5 -33.5t-80 -15 q-193 0 -311.5 125t-118.5 328zM199 1126q59 62 129.5 140.5t111.5 125.5l41 48h29q150 -175 283 -314l-29 -45l-19 -2q-46 41 -249 199q-166 -125 -250 -199l-19 2zM236 604l370 19q31 3 41 13.5t10 41.5q0 82 -44 125t-126 43q-96 0 -164 -65t-87 -177z" />
<glyph unicode="&#xeb;" horiz-adv-x="917" d="M74 428q0 138 61.5 258.5t166 192t224.5 71.5q151 0 228 -75.5t77 -221.5q0 -23 -3 -48t-6 -39l-3 -13l-26 -25h-566v-32q0 -172 83 -276.5t220 -104.5q56 0 119 15.5t98 31.5l35 16l13 -4l22 -59q-8 -6 -21.5 -15.5t-53 -33.5t-76 -42.5t-82.5 -33.5t-80 -15 q-193 0 -311.5 125t-118.5 328zM229 1247q0 42 29.5 72.5t73.5 30.5q39 0 61.5 -26t22.5 -62q0 -42 -29.5 -72.5t-73.5 -30.5q-39 0 -61.5 26.5t-22.5 61.5zM236 604l370 19q31 3 41 13.5t10 41.5q0 82 -44 125t-126 43q-96 0 -164 -65t-87 -177zM569 1247q0 42 29.5 72.5 t73.5 30.5q39 0 61.5 -26t22.5 -62q0 -42 -29.5 -72.5t-73.5 -30.5q-39 0 -61.5 26.5t-22.5 61.5z" />
<glyph unicode="&#xec;" horiz-adv-x="577" d="M12 1374l78 84l21 4q160 -192 307 -352l-41 -39l-19 -4q-76 69 -162 140.5t-134 108.5l-48 36zM86 815l8 76q61 9 134.5 23.5t117.5 25.5l43 10l10 -24q-19 -43 -33 -262.5t-14 -462.5q0 -60 17 -87.5t55 -27.5l72 4l4 -8l-17 -88q-106 6 -182 6q-38 0 -91 -6t-86 -12 l-34 -7l8 84q61 17 88 48.5t27 85.5v520q0 110 -76 110q-10 0 -23 -2t-20 -4z" />
<glyph unicode="&#xed;" horiz-adv-x="577" d="M86 815l8 76q61 9 134.5 23.5t117.5 25.5l43 10l10 -24q-19 -43 -33 -262.5t-14 -462.5q0 -60 17 -87.5t55 -27.5l72 4l4 -8l-17 -88q-106 6 -182 6q-38 0 -91 -6t-86 -12l-34 -7l8 84q61 17 88 48.5t27 85.5v520q0 110 -76 110q-10 0 -23 -2t-20 -4zM143 1110 q65 71 142 159.5t121 141.5l45 53l20 -4l78 -84l-2 -22q-172 -131 -344 -287l-19 4z" />
<glyph unicode="&#xee;" horiz-adv-x="577" d="M-4 1124q59 62 130 140.5t112 125.5l41 48h28q150 -175 283 -314l-29 -45l-18 -2q-43 38 -89 74.5t-99.5 77.5t-61.5 47q-166 -125 -250 -199l-18 2zM86 815l8 76q61 9 134.5 23.5t117.5 25.5l43 10l10 -24q-19 -43 -33 -262.5t-14 -462.5q0 -60 17 -87.5t55 -27.5l72 4 l4 -8l-17 -88q-106 6 -182 6q-38 0 -91 -6t-86 -12l-34 -7l8 84q61 17 88 48.5t27 85.5v520q0 110 -76 110q-10 0 -23 -2t-20 -4z" />
<glyph unicode="&#xef;" horiz-adv-x="577" d="M23 1247q0 42 29.5 72.5t72.5 30.5q39 0 61.5 -26t22.5 -62q0 -42 -29.5 -72.5t-73.5 -30.5q-39 0 -61 26.5t-22 61.5zM86 815l8 76q61 9 134.5 23.5t117.5 25.5l43 10l10 -24q-19 -43 -33 -262.5t-14 -462.5q0 -60 17 -87.5t55 -27.5l72 4l4 -8l-17 -88q-106 6 -182 6 q-38 0 -91 -6t-86 -12l-34 -7l8 84q61 17 88 48.5t27 85.5v520q0 110 -76 110q-10 0 -23 -2t-20 -4zM362 1247q0 42 29.5 72.5t73.5 30.5q39 0 61.5 -26t22.5 -62q0 -42 -29.5 -72.5t-73.5 -30.5q-39 0 -61.5 26.5t-22.5 61.5z" />
<glyph unicode="&#xf0;" horiz-adv-x="1040" d="M88 422q0 137 61.5 253.5t167 184.5t228.5 68q28 0 65.5 -13.5t61.5 -26.5l24 -14l4 5q-72 167 -194 292l-273 -131l-18 7l-8 61l242 119q-143 125 -340 215l30 67l21 9q224 -97 397 -238l283 137l16 -10l8 -59l-248 -121q163 -153 249.5 -339.5t86.5 -391.5 q0 -144 -59.5 -264t-164 -188.5t-230.5 -68.5q-182 0 -296 124.5t-114 322.5zM252 481q0 -180 84.5 -292.5t218.5 -112.5q106 0 167.5 93t61.5 253q0 173 -36 311q-89 84 -236 84q-122 0 -191 -89t-69 -247z" />
<glyph unicode="&#xf1;" horiz-adv-x="1150" d="M80 825l6 68q63 10 134.5 25t111.5 24l41 10l12 -16q-19 -65 -23 -135l5 -6q230 155 301 155q129 0 204.5 -71t75.5 -193q0 -30 -14 -225t-14 -260q0 -61 16.5 -88t54.5 -27l72 4l4 -8l-16 -88q-107 6 -183 6q-38 0 -91 -6t-87 -12l-33 -7l9 84q61 17 87.5 48.5 t26.5 85.5l8 405q0 102 -44 157.5t-126 55.5q-111 0 -251 -106q-19 -447 -19 -504q0 -63 17 -89t57 -26l72 4l4 -8l-19 -88q-110 6 -186 6q-38 0 -89 -3t-82 -6l-32 -3l10 84q59 9 84 36.5t25 84.5v499q0 69 -22.5 97t-77.5 28h-23zM252 1171v11l156 182l32 8 q35 0 153.5 -33.5t145.5 -33.5q21 0 53 28t54 56l22 28h13l45 -43v-10l-156 -182l-33 -8q-35 0 -153.5 33.5t-145.5 33.5q-22 0 -54 -28.5t-54 -56.5l-21 -28h-12z" />
<glyph unicode="&#xf2;" horiz-adv-x="1019" d="M74 430q0 144 62.5 263.5t171.5 188t241 68.5q175 0 286 -126.5t111 -327.5q0 -144 -62.5 -264t-171.5 -188.5t-241 -68.5q-177 0 -287 127t-110 328zM238 489q0 -184 80.5 -298.5t209.5 -114.5q115 0 182.5 93t67.5 253q0 185 -81 301.5t-210 116.5q-115 0 -182 -94.5 t-67 -256.5zM256 1374l78 84l20 4q161 -192 308 -352l-41 -39l-19 -4q-76 69 -162 140.5t-134 108.5l-48 36z" />
<glyph unicode="&#xf3;" horiz-adv-x="1019" d="M74 430q0 144 62.5 263.5t171.5 188t241 68.5q175 0 286 -126.5t111 -327.5q0 -144 -62.5 -264t-171.5 -188.5t-241 -68.5q-177 0 -287 127t-110 328zM238 489q0 -184 80.5 -298.5t209.5 -114.5q115 0 182.5 93t67.5 253q0 185 -81 301.5t-210 116.5q-115 0 -182 -94.5 t-67 -256.5zM373 1110q65 71 142 159.5t121 141.5l44 53l20 -4l78 -84l-2 -22q-172 -131 -344 -287l-18 4z" />
<glyph unicode="&#xf4;" horiz-adv-x="1019" d="M74 430q0 144 62.5 263.5t171.5 188t241 68.5q175 0 286 -126.5t111 -327.5q0 -144 -62.5 -264t-171.5 -188.5t-241 -68.5q-177 0 -287 127t-110 328zM217 1126q59 62 130 140.5t112 125.5l41 48h28q150 -175 283 -314l-29 -45l-18 -2q-43 38 -89 74.5t-99.5 77.5 t-61.5 47q-166 -125 -250 -199l-18 2zM238 489q0 -184 80.5 -298.5t209.5 -114.5q115 0 182.5 93t67.5 253q0 185 -81 301.5t-210 116.5q-115 0 -182 -94.5t-67 -256.5z" />
<glyph unicode="&#xf5;" horiz-adv-x="1019" d="M74 430q0 144 62.5 263.5t171.5 188t241 68.5q175 0 286 -126.5t111 -327.5q0 -144 -62.5 -264t-171.5 -188.5t-241 -68.5q-177 0 -287 127t-110 328zM176 1171v11l156 182l33 8q35 0 153.5 -33.5t145.5 -33.5q21 0 53 28t54 56l22 28h12l45 -43v-10l-156 -182l-32 -8 q-35 0 -154 33.5t-146 33.5q-22 0 -54 -28.5t-54 -56.5l-21 -28h-12zM238 489q0 -184 80.5 -298.5t209.5 -114.5q115 0 182.5 93t67.5 253q0 185 -81 301.5t-210 116.5q-115 0 -182 -94.5t-67 -256.5z" />
<glyph unicode="&#xf6;" horiz-adv-x="1019" d="M74 430q0 144 62.5 263.5t171.5 188t241 68.5q175 0 286 -126.5t111 -327.5q0 -144 -62.5 -264t-171.5 -188.5t-241 -68.5q-177 0 -287 127t-110 328zM238 489q0 -184 80.5 -298.5t209.5 -114.5q115 0 182.5 93t67.5 253q0 185 -81 301.5t-210 116.5q-115 0 -182 -94.5 t-67 -256.5zM248 1247q0 42 29.5 72.5t72.5 30.5q39 0 61.5 -26t22.5 -62q0 -42 -29.5 -72.5t-72.5 -30.5q-39 0 -61.5 26.5t-22.5 61.5zM588 1247q0 42 29.5 72.5t72.5 30.5q39 0 61.5 -26t22.5 -62q0 -42 -29.5 -72.5t-72.5 -30.5q-39 0 -61.5 26.5t-22.5 61.5z" />
<glyph unicode="&#xf7;" d="M37 498l22 100q308 -2 490 -2q73 0 182.5 3t182.5 6l73 3l12 -20l-16 -105l-465 -2l-469 -2zM387 176q0 54 35 90.5t92 36.5q55 0 86 -33.5t31 -83.5q0 -54 -35.5 -90.5t-93.5 -36.5q-55 0 -85 34.5t-30 82.5zM387 891q0 54 35 90.5t92 36.5q55 0 86 -33.5t31 -83.5 q0 -54 -35.5 -90.5t-93.5 -36.5q-55 0 -85 34.5t-30 82.5z" />
<glyph unicode="&#xf8;" horiz-adv-x="1019" d="M74 430q0 144 62.5 263.5t171.5 188t241 68.5q79 0 149 -28l97 182l59 -14l6 -25l-96 -178q86 -59 134 -160.5t48 -230.5q0 -144 -62.5 -264t-171.5 -188.5t-241 -68.5q-80 0 -166 35l-112 -211l-56 13l-4 20l111 213q-80 59 -125 159t-45 226zM238 489q0 -188 81 -301 l312 603q-65 49 -144 49q-115 0 -182 -94.5t-67 -256.5zM369 133q69 -57 159 -57q115 0 182.5 93t67.5 253q0 196 -92 315z" />
<glyph unicode="&#xf9;" horiz-adv-x="1107" d="M57 813l9 76q56 9 129 24t118 26l45 11l13 -24q-20 -54 -37 -242t-17 -367q0 -200 164 -200q43 0 95.5 22.5t74.5 38t78 55.5v476q0 61 -22.5 85.5t-79.5 24.5l-49 -2l8 74q64 9 143 23.5t125 25.5l47 10l12 -24q-19 -46 -32 -255t-13 -456q0 -44 22 -69t62 -25 q29 0 60 12.5t47 25.5l16 13l29 -33q-4 -7 -12 -18t-30.5 -39t-43 -50t-46.5 -39.5t-46 -17.5q-168 0 -183 166l-10 4q-99 -75 -177.5 -122.5t-106.5 -47.5q-132 0 -202.5 61.5t-70.5 176.5l8 498q0 110 -75 110q-10 0 -23 -2t-21 -4zM266 1374l78 84l21 4 q160 -192 307 -352l-41 -39l-19 -4q-76 69 -162 140.5t-134 108.5l-48 36z" />
<glyph unicode="&#xfa;" horiz-adv-x="1107" d="M57 813l9 76q56 9 129 24t118 26l45 11l13 -24q-20 -54 -37 -242t-17 -367q0 -200 164 -200q43 0 95.5 22.5t74.5 38t78 55.5v476q0 61 -22.5 85.5t-79.5 24.5l-49 -2l8 74q64 9 143 23.5t125 25.5l47 10l12 -24q-19 -46 -32 -255t-13 -456q0 -44 22 -69t62 -25 q29 0 60 12.5t47 25.5l16 13l29 -33q-4 -7 -12 -18t-30.5 -39t-43 -50t-46.5 -39.5t-46 -17.5q-168 0 -183 166l-10 4q-99 -75 -177.5 -122.5t-106.5 -47.5q-132 0 -202.5 61.5t-70.5 176.5l8 498q0 110 -75 110q-10 0 -23 -2t-21 -4zM383 1110q65 71 142 159.5t121 141.5 l44 53l21 -4l77 -84l-2 -22q-172 -131 -344 -287l-18 4z" />
<glyph unicode="&#xfb;" horiz-adv-x="1107" d="M57 813l9 76q56 9 129 24t118 26l45 11l13 -24q-20 -54 -37 -242t-17 -367q0 -200 164 -200q43 0 95.5 22.5t74.5 38t78 55.5v476q0 61 -22.5 85.5t-79.5 24.5l-49 -2l8 74q64 9 143 23.5t125 25.5l47 10l12 -24q-19 -46 -32 -255t-13 -456q0 -44 22 -69t62 -25 q29 0 60 12.5t47 25.5l16 13l29 -33q-4 -7 -12 -18t-30.5 -39t-43 -50t-46.5 -39.5t-46 -17.5q-168 0 -183 166l-10 4q-99 -75 -177.5 -122.5t-106.5 -47.5q-132 0 -202.5 61.5t-70.5 176.5l8 498q0 110 -75 110q-10 0 -23 -2t-21 -4zM227 1126q59 62 130 140.5t112 125.5 l41 48h29q149 -175 282 -314l-28 -45l-19 -2q-43 38 -89 74.5t-99.5 77.5t-61.5 47q-166 -125 -250 -199l-18 2z" />
<glyph unicode="&#xfc;" horiz-adv-x="1107" d="M57 813l9 76q56 9 129 24t118 26l45 11l13 -24q-20 -54 -37 -242t-17 -367q0 -200 164 -200q43 0 95.5 22.5t74.5 38t78 55.5v476q0 61 -22.5 85.5t-79.5 24.5l-49 -2l8 74q64 9 143 23.5t125 25.5l47 10l12 -24q-19 -46 -32 -255t-13 -456q0 -44 22 -69t62 -25 q29 0 60 12.5t47 25.5l16 13l29 -33q-4 -7 -12 -18t-30.5 -39t-43 -50t-46.5 -39.5t-46 -17.5q-168 0 -183 166l-10 4q-99 -75 -177.5 -122.5t-106.5 -47.5q-132 0 -202.5 61.5t-70.5 176.5l8 498q0 110 -75 110q-10 0 -23 -2t-21 -4zM258 1247q0 42 29.5 72.5t72.5 30.5 q39 0 61.5 -26t22.5 -62q0 -42 -29.5 -72.5t-72.5 -30.5q-39 0 -61.5 26.5t-22.5 61.5zM598 1247q0 42 29.5 72.5t72.5 30.5q39 0 61.5 -26t22.5 -62q0 -42 -29.5 -72.5t-72.5 -30.5q-39 0 -61.5 26.5t-22.5 61.5z" />
<glyph unicode="&#xfd;" horiz-adv-x="913" d="M-18 860l12 68q123 -2 170 -2q54 0 115.5 3.5t96.5 6.5l34 4l4 -10l-13 -64q-70 -3 -95 -14t-25 -39q0 -32 45.5 -188.5t91.5 -297.5l45 -141h8q240 574 240 619q0 53 -78 53h-94l-4 8l12 68q107 -8 207 -8l174 2l-15 -76q-45 -7 -68.5 -31.5t-45.5 -85.5l-264 -622 q-50 -115 -83 -187t-69 -144.5t-62 -112.5t-56 -77t-58.5 -53t-61 -25t-71.5 -8q-15 0 -52.5 48.5t-37.5 68.5l10 15q118 0 224 95.5t175 264.5q-125 397 -268 756q-25 51 -56.5 74t-82.5 24zM330 1110q65 71 142 159.5t121 141.5l44 53l20 -4l78 -84l-2 -22 q-172 -131 -344 -287l-18 4z" />
<glyph unicode="&#xfe;" horiz-adv-x="1044" d="M43 -485l10 79q29 3 48.5 9.5t32.5 17t20 24t10.5 35t4.5 46t1 59.5v16l4 392v1089q0 111 -76 111q-10 0 -23 -2.5t-21 -4.5l-7 -2q0 13 4 37l4 39q63 8 138.5 23t120.5 26l44 11l13 -27q-30 -49 -47 -686q201 143 247 143q48 0 84 -8q141 -28 226.5 -144.5t85.5 -285.5 q0 -145 -68.5 -269t-186 -196t-255.5 -72q-67 0 -146 9v-82q-1 -98 0.5 -138.5t10.5 -84t29.5 -56t58.5 -12.5l69 2l4 -6l-16 -78h-129q-63 0 -134.5 -2.5t-116 -6t-44.5 -5.5zM313 131q37 -19 94 -31t107 -12q136 0 215.5 94t79.5 254q0 157 -78 266t-192 109 q-39 0 -100.5 -31t-119.5 -80z" />
<glyph unicode="&#xff;" horiz-adv-x="913" d="M-18 860l12 68q123 -2 170 -2q54 0 115.5 3.5t96.5 6.5l34 4l4 -10l-13 -64q-70 -3 -95 -14t-25 -39q0 -32 45.5 -188.5t91.5 -297.5l45 -141h8q240 574 240 619q0 53 -78 53h-94l-4 8l12 68q107 -8 207 -8l174 2l-15 -76q-45 -7 -68.5 -31.5t-45.5 -85.5l-264 -622 q-50 -115 -83 -187t-69 -144.5t-62 -112.5t-56 -77t-58.5 -53t-61 -25t-71.5 -8q-15 0 -52.5 48.5t-37.5 68.5l10 15q118 0 224 95.5t175 264.5q-125 397 -268 756q-25 51 -56.5 74t-82.5 24zM205 1247q0 42 29.5 72.5t72.5 30.5q39 0 61.5 -26t22.5 -62q0 -42 -29.5 -72.5 t-72.5 -30.5q-39 0 -61.5 26.5t-22.5 61.5zM545 1247q0 42 29.5 72.5t72.5 30.5q39 0 61.5 -26t22.5 -62q0 -42 -29.5 -72.5t-72.5 -30.5q-39 0 -61.5 26.5t-22.5 61.5z" />
<glyph unicode="&#x152;" horiz-adv-x="1972" d="M84 608q0 200 87 365.5t238 260.5t334 95q66 0 213.5 -14.5t235.5 -14.5q410 0 623 29l6 -12q-35 -152 -47 -340l-99 -8q4 59 4 88q0 36 -2.5 57t-15.5 39.5t-30.5 26.5t-57 14t-85 7t-124.5 1q-45 0 -66.5 -1.5t-39.5 -4.5t-24 -13.5t-9 -22.5t-4 -38l-17 -397l213 -2 q33 0 95.5 5.5t108.5 11.5l46 5l8 -10l-28 -121q-176 7 -287 7l-160 -15l-6 -391q0 -45 4 -66.5t22.5 -36t47.5 -17.5t88 -3q88 0 140.5 2.5t98 13t68.5 25t42.5 45.5t28 67t17.5 97l90 10l6 -10q-37 -170 -55 -344l-10 -12q-430 16 -625 16q-114 0 -285 -13.5t-235 -13.5 q-244 0 -398.5 176.5t-154.5 456.5zM260 676q0 -264 122 -429t318 -165q198 0 280 77.5t85 266.5l2 530q0 63 -11 105t-35 72t-68.5 46.5t-106 23.5t-152.5 7q-192 0 -313 -149t-121 -385z" />
<glyph unicode="&#x153;" horiz-adv-x="1579" d="M74 430q0 144 61 263.5t168 188t236 68.5q101 0 181.5 -46t131.5 -132q69 89 161.5 133.5t176.5 44.5q146 0 226.5 -71.5t80.5 -202.5q0 -33 -5.5 -63.5t-11.5 -44.5l-5 -15l-27 -25h-557v-32q0 -172 83 -276.5t220 -104.5q56 0 119 15.5t98 31.5l35 16l12 -4l23 -59 q-8 -6 -21.5 -15.5t-53 -33.5t-76.5 -42.5t-83 -33.5t-80 -15q-242 0 -356 177q-65 -85 -155.5 -131t-194.5 -46q-172 0 -279.5 127t-107.5 328zM238 489q0 -184 77.5 -298.5t202.5 -114.5q110 0 175 93t65 253q0 185 -78.5 301.5t-202.5 116.5q-110 0 -174.5 -95 t-64.5 -256zM899 604l371 19q31 1 41 12.5t10 42.5q0 82 -44 125t-126 43q-96 0 -164.5 -65t-87.5 -177z" />
<glyph unicode="&#x178;" horiz-adv-x="1101" d="M-39 1231l12 80q132 -6 226 -6q51 0 123.5 4t119.5 8l47 4l7 -14l-7 -72q-91 -7 -123 -22.5t-32 -51.5q0 -26 57 -158t113.5 -251t58.5 -119h10l234 434q33 61 33 102q0 53 -129 62l-4 8l12 80q151 -14 227 -14q36 0 83 2t77 4l29 2l8 -15l-13 -75q-93 -18 -132.5 -57 t-113.5 -171q-14 -25 -22 -39l-205 -360q-28 -48 -34.5 -105t-9.5 -217q0 -10 -0.5 -15t-0.5 -14v-16q-2 -79 17.5 -109t72.5 -30l101 6l4 -8l-19 -94q-170 6 -260 6q-45 0 -103.5 -6t-94.5 -12l-35 -7l12 95q56 11 87 24.5t48 41t21 60t4 95.5v90q0 63 -12 111.5t-47 119.5 l-185 375q-60 123 -79 150q-40 57 -108 75q-29 7 -71 11zM319 1573q0 42 29.5 72t73.5 30q39 0 61.5 -26t22.5 -62q0 -42 -29.5 -72t-73.5 -30q-39 0 -61.5 26.5t-22.5 61.5zM659 1573q0 42 29.5 72t73.5 30q39 0 61.5 -26t22.5 -62q0 -42 -29.5 -72t-73.5 -30 q-39 0 -61.5 26.5t-22.5 61.5z" />
<glyph unicode="&#x2c6;" horiz-adv-x="815" d="M111 1126q59 62 129.5 140.5t111.5 125.5l41 48h29q150 -175 283 -314l-29 -45l-19 -2q-46 41 -249 199q-166 -125 -250 -199l-19 2z" />
<glyph unicode="&#x2dc;" horiz-adv-x="815" d="M72 1171v11l155 182l33 8q35 0 153.5 -33.5t145.5 -33.5q21 0 53 28t54 56l22 28h12l45 -43v-10l-155 -182l-33 -8q-35 0 -153.5 33.5t-145.5 33.5q-22 0 -54 -28.5t-54 -56.5l-21 -28h-12z" />
<glyph unicode="&#x2000;" horiz-adv-x="866" />
<glyph unicode="&#x2001;" horiz-adv-x="1733" />
<glyph unicode="&#x2002;" horiz-adv-x="866" />
<glyph unicode="&#x2003;" horiz-adv-x="1733" />
<glyph unicode="&#x2004;" horiz-adv-x="577" />
<glyph unicode="&#x2005;" horiz-adv-x="433" />
<glyph unicode="&#x2006;" horiz-adv-x="288" />
<glyph unicode="&#x2007;" horiz-adv-x="288" />
<glyph unicode="&#x2008;" horiz-adv-x="216" />
<glyph unicode="&#x2009;" horiz-adv-x="346" />
<glyph unicode="&#x200a;" horiz-adv-x="96" />
<glyph unicode="&#x2010;" horiz-adv-x="663" d="M74 446l12 107l356 41l133 18l15 -18l-10 -111l-492 -53z" />
<glyph unicode="&#x2011;" horiz-adv-x="663" d="M74 446l12 107l356 41l133 18l15 -18l-10 -111l-492 -53z" />
<glyph unicode="&#x2012;" horiz-adv-x="663" d="M74 446l12 107l356 41l133 18l15 -18l-10 -111l-492 -53z" />
<glyph unicode="&#x2013;" horiz-adv-x="937" d="M-12 477l22 101q308 -3 490 -3q123 0 280 7q158 4 158 6l12 -21l-16 -104q-195 0 -559.5 -2t-374.5 -2z" />
<glyph unicode="&#x2014;" horiz-adv-x="1880" d="M-12 477l22 101q610 -3 961 -3q145 0 364 3.5t380 6.5t165 3l12 -21l-16 -104q-391 0 -1122 -2t-754 -2z" />
<glyph unicode="&#x2018;" horiz-adv-x="360" d="M57 1012q0 52 24 102t65 90t83.5 70t89.5 55l37 -31v-20q-63 -39 -105 -95.5t-42 -107.5q0 -78 82 -127l-4 -28q-73 -54 -119 -54q-47 0 -79 40t-32 106z" />
<glyph unicode="&#x2019;" horiz-adv-x="360" d="M4 897v21q64 40 106 95.5t42 106.5q0 78 -82 127l4 29q72 53 119 53t78.5 -39.5t31.5 -105.5q0 -52 -24.5 -102.5t-65 -90.5t-83 -70t-89.5 -55z" />
<glyph unicode="&#x201a;" horiz-adv-x="487" d="M31 -270q71 49 116.5 116t45.5 131q0 82 -66 144l4 29q72 53 119 53q45 0 74.5 -42.5t29.5 -117.5q0 -56 -26.5 -112.5t-71 -103.5t-91 -83t-97.5 -66l-37 31v21z" />
<glyph unicode="&#x201c;" horiz-adv-x="677" d="M57 1012q0 52 24 102t65 90t83.5 70t89.5 55l37 -31v-20q-63 -39 -105 -95.5t-42 -107.5q0 -78 82 -127l-4 -28q-73 -54 -119 -54q-47 0 -79 40t-32 106zM375 1012q0 52 24 102t65 90t83.5 70t89.5 55l37 -31v-20q-64 -40 -106 -96t-42 -107q0 -78 82 -127l-4 -28 q-73 -54 -119 -54q-47 0 -78.5 40t-31.5 106z" />
<glyph unicode="&#x201d;" horiz-adv-x="677" d="M4 897v21q64 40 106 95.5t42 106.5q0 78 -82 127l4 29q72 53 119 53t78.5 -39.5t31.5 -105.5q0 -52 -24.5 -102.5t-65 -90.5t-83 -70t-89.5 -55zM322 897v21q64 40 105.5 95.5t41.5 106.5q0 78 -82 127l4 29q72 53 119 53t79 -39.5t32 -105.5q0 -52 -24.5 -102.5 t-65.5 -90.5t-83.5 -70t-89.5 -55z" />
<glyph unicode="&#x201e;" horiz-adv-x="813" d="M63 -209q64 40 106 96t42 107q0 78 -82 127l4 29q72 53 119 53t78.5 -40t31.5 -106q0 -52 -24 -102t-65 -90t-83.5 -70t-89.5 -55l-37 31v20zM381 -209q63 39 105 95.5t42 107.5q0 78 -82 127l5 29q72 53 118 53q47 0 79 -40t32 -106q0 -52 -24 -102t-65 -90t-83.5 -70 t-89.5 -55l-37 31v20z" />
<glyph unicode="&#x2022;" horiz-adv-x="696" d="M123 461q0 97 64.5 164t162.5 67q100 0 162.5 -65.5t62.5 -157.5q0 -97 -65 -163t-166 -66t-161 64.5t-60 156.5z" />
<glyph unicode="&#x2026;" horiz-adv-x="1347" d="M123 92q0 54 35 90.5t92 36.5q55 0 86 -33.5t31 -83.5q0 -54 -35.5 -90.5t-93.5 -36.5q-55 0 -85 34.5t-30 82.5zM553 92q0 54 35 90.5t92 36.5q55 0 86 -33.5t31 -83.5q0 -54 -35.5 -90.5t-93.5 -36.5q-55 0 -85 34.5t-30 82.5zM983 92q0 54 35 90.5t92 36.5 q55 0 86 -33.5t31 -83.5q0 -54 -35.5 -90.5t-93.5 -36.5q-55 0 -85 34.5t-30 82.5z" />
<glyph unicode="&#x202f;" horiz-adv-x="346" />
<glyph unicode="&#x2039;" horiz-adv-x="534" d="M41 434v31q196 186 352 354l45 -31l2 -20l-219 -305l219 -318l-2 -20l-45 -31q-69 71 -157 156t-142 134z" />
<glyph unicode="&#x203a;" horiz-adv-x="534" d="M94 145l219 306l-219 317l2 20l45 31q69 -71 157.5 -156t141.5 -135l54 -49v-30q-197 -187 -353 -355l-45 31z" />
<glyph unicode="&#x205f;" horiz-adv-x="433" />
<glyph unicode="&#x20ac;" horiz-adv-x="1204" d="M25 362l10 60h153q-2 18 -2 55q0 55 9 107h-160l-10 14l10 59h178q55 174 204.5 277.5t356.5 103.5q62 0 136.5 -10t118.5 -20l44 -9l8 -12q-33 -122 -43 -278l-102 -7q4 41 4 80q0 144 -229 144q-130 0 -216.5 -70.5t-115.5 -198.5h4l375 9l12 -19l-6 -61l-395 -2 q-2 -16 -2 -54q0 -64 8 -108h8l375 8l12 -18l-6 -62l-373 -2q37 -125 123.5 -194.5t210.5 -69.5q108 0 172.5 58.5t93.5 183.5l103 8q-33 -152 -43 -273l-13 -16q-17 -7 -47 -17.5t-121.5 -28t-181.5 -17.5q-196 0 -324 96.5t-165 269.5h-164z" />
<glyph unicode="&#x2122;" horiz-adv-x="1153" d="M4 1143q8 88 10 164l9 8l79 -8h256l82 8l9 -8l10 -158l-66 -6q-7 52 -16 71.5t-26 25.5t-62 7q-8 -136 -8 -325q0 -29 10 -41.5t33 -12.5l45 2l2 -2l-6 -53q-99 4 -140 4l-135 -4l6 49q55 4 68.5 18t13.5 62v303q-65 -2 -82 -16.5t-26 -81.5zM487 813l7 51q24 1 35 13.5 t14 40.5q4 34 18 162t14 143q0 20 -12 27t-49 10l-6 6l8 43q71 -4 102 -4l84 4q24 -76 50.5 -154.5t41.5 -118.5l15 -41h8q54 144 111 312q5 0 24.5 -0.5t37.5 -0.5t32 1l84 4l4 -4l-6 -45q-35 -3 -47.5 -12t-12.5 -29q0 -69 19 -283q5 -42 13 -56t28 -14l22 2l4 -4l-8 -49 q-49 2 -82 2q-98 0 -116 -6l6 51q47 3 47 37l-19 258h-6q-63 -151 -131 -346l-53 -6q-89 256 -129 352h-8q-17 -248 -17 -266q0 -25 25 -25h29l4 -4l-8 -47q-68 2 -95 2z" />
<glyph unicode="&#xe000;" horiz-adv-x="931" d="M0 0v932h932v-932h-932z" />
<glyph unicode="&#xfb01;" horiz-adv-x="1202" d="M84 842l14 69l123 23q0 270 136.5 428t371.5 158q70 0 129.5 -15.5t142.5 -54.5l5 -18q-33 -66 -64 -154l-22 -6q-5 5 -14.5 13.5t-39.5 30.5t-61.5 39t-78.5 30.5t-93 13.5q-257 0 -260 -379l-2 -94q380 0 478.5 3.5t164.5 20.5l10 -24q-19 -42 -33 -263t-14 -462 q0 -61 17 -88t55 -27l71 4l4 -8l-16 -88q-106 6 -182 6q-38 0 -91 -6t-87 -12l-33 -7l8 84q74 20 94.5 57t20.5 150v447q0 70 -25.5 90t-116.5 20h-327q0 -103 -4.5 -311t-4.5 -311q0 -113 101 -113l127 2l4 -8l-14 -86q-174 4 -254 4q-51 0 -108.5 -2t-89.5 -4l-32 -2 l10 80q71 9 94 46t23 142v481q-3 49 -29 67t-100 21z" />
<glyph unicode="&#xfb02;" horiz-adv-x="1175" d="M84 842l14 69l123 23v8q2 266 126.5 422t336.5 156q110 0 203 -35q38 7 76 16t57 14l18 5l13 -27q-22 -34 -40 -437t-18 -855q0 -61 17 -88t55 -27l72 4l4 -8l-17 -88q-106 6 -182 6q-38 0 -91 -6t-87 -12l-33 -7l8 84q61 17 88 48.5t27 85.5v1089l-2 29 q-49 38 -120.5 63t-131.5 25q-224 0 -227 -379l-2 -100l282 6l6 -6l-20 -109q-127 6 -270 6l-9 -616q0 -58 25.5 -85.5t79.5 -27.5l123 4l4 -8l-14 -88q-174 4 -254 4q-51 0 -108.5 -2t-89.5 -4l-32 -2l10 80q117 15 117 121v552q-3 48 -28 64.5t-101 19.5z" />
</font>
</defs>
</svg>
